<?xml version="1.0" encoding="UTF-8"?>
<svg xmlns="http://www.w3.org/2000/svg" xmlns:xlink="http://www.w3.org/1999/xlink" version="1.2" >
<font id="FlamaCond-Light">
<font-face  font-family="Flama Cond" units-per-em="1000" ascent="1020" descent="-225" font-style="normal" font-weight="300" font-stretch="condensed" cap-height="713" x-height="541" underline-position="-60" underline-thickness="44" />
<missing-glyph  horiz-adv-x="441" d="M66 713 L375 713 L375 0 L66 0 L66 713 Z M118 663 L118 50 L323 50 L323 663 L118 663 Z " />
<glyph glyph-name="NULL" d="" />
<glyph glyph-name="nonmarkingreturn" unicode="&#xd;" horiz-adv-x="140" d="" />
<glyph glyph-name="space" unicode="&#x20;" horiz-adv-x="140" d="" />
<glyph glyph-name="period" unicode="&#x2e;" horiz-adv-x="154" d="M51 100 L104 100 L104 0 L51 0 L51 100 Z " />
<glyph glyph-name="ellipsis" unicode="&#x2026;" horiz-adv-x="442" d="M51 100 L102 100 L102 0 L51 0 L51 100 Z M195 100 L247 100 L247 0 L195 0 L195 100 Z M340 100 L392 100 L392 0 L340 0 L340 100 Z " />
<glyph glyph-name="comma" unicode="&#x2c;" horiz-adv-x="154" d="M69 3 L51 3 L51 100 L104 100 L104 6 L80 -94 L51 -94 L69 3 Z " />
<glyph glyph-name="colon" unicode="&#x3a;" horiz-adv-x="154" d="M51 100 L104 100 L104 0 L51 0 L51 100 Z M51 518 L104 518 L104 418 L51 418 L51 518 Z " />
<glyph glyph-name="semicolon" unicode="&#x3b;" horiz-adv-x="155" d="M69 3 L52 3 L52 100 L104 100 L104 6 L80 -94 L51 -94 L69 3 Z M52 518 L104 518 L104 418 L52 418 L52 518 Z " />
<glyph glyph-name="hyphen" unicode="&#x2d;" horiz-adv-x="219" d="M28 322 L190 322 L190 274 L28 274 L28 322 Z " />
<glyph glyph-name="exclam" unicode="&#x21;" horiz-adv-x="171" d="M61 443 L61 714 L111 714 L111 443 L104 185 L70 185 L61 443 Z M62 98 L110 98 L110 0 L62 0 L62 98 Z " />
<glyph glyph-name="exclamdown" unicode="&#xa1;" horiz-adv-x="171" d="M61 109 L68 367 L102 367 L111 109 L111 -162 L61 -162 L61 109 Z M62 552 L110 552 L110 454 L62 454 L62 552 Z " />
<glyph glyph-name="question" unicode="&#x3f;" horiz-adv-x="324" d="M129 99 L179 99 L179 0 L129 0 L129 99 Z M129 226 Q131 284 146.5 321.5 Q162 359 182 391 Q192 407 201.5 424 Q211 441 218.5 459.5 Q226 478 230 499.5 Q234 521 234 547 Q234 570 230.5 593.5 Q227 617 218.5 636 Q210 655 196 667 Q182 679 160 679 Q128 679 108 651.5 Q88 624 88 575 L88 529 L43 529 L43 568 Q43 643 73.5 683.5 Q104 724 164 724 Q226 724 255 675.5 Q284 627 284 551 Q284 489 264 446 Q244 403 222 369 Q205 340 191 310.5 Q177 281 176 242 L176 186 L129 186 L129 226 Z " />
<glyph glyph-name="questiondown" unicode="&#xbf;" horiz-adv-x="325" d="M150 552 L199 552 L199 453 L150 453 L150 552 Z M163 -170 Q132 -170 109.5 -157 Q87 -144 72.5 -121 Q58 -98 51 -65.5 Q44 -33 44 5 Q44 64 63.5 108.5 Q83 153 106 188 Q126 220 139 247.5 Q152 275 152 310 L152 368 L198 368 L198 326 Q198 297 194 274 Q190 251 183 231.5 Q176 212 166.5 195.5 Q157 179 147 163 Q136 146 126.5 129 Q117 112 109.5 94 Q102 76 98 55 Q94 34 94 9 Q94 -15 97.5 -39 Q101 -63 109.5 -82 Q118 -101 132.5 -113 Q147 -125 168 -125 Q200 -125 220 -96.5 Q240 -68 240 -20 L240 27 L285 27 L285 -12 Q285 -88 254 -129 Q223 -170 163 -170 Z " />
<glyph glyph-name="asterisk" unicode="&#x2a;" horiz-adv-x="297" d="M54 489 L112 577 L23 632 L42 663 L131 610 L131 714 L168 714 L168 610 L255 663 L275 632 L185 577 L244 489 L213 468 L149 561 L85 468 L54 489 Z " />
<glyph glyph-name="quotesingle" unicode="&#x27;" horiz-adv-x="144" d="M47 624 L47 714 L97 714 L97 624 L89 524 L56 524 L47 624 Z " />
<glyph glyph-name="quotedbl" unicode="&#x22;" horiz-adv-x="258" d="M47 624 L47 714 L97 714 L97 624 L89 524 L56 524 L47 624 Z M161 624 L161 714 L211 714 L211 624 L203 524 L169 524 L161 624 Z " />
<glyph glyph-name="quoteleft" unicode="&#x2018;" horiz-adv-x="151" d="M49 618 L69 715 L99 715 L83 622 L100 622 L100 525 L49 525 L49 618 Z " />
<glyph glyph-name="quoteright" unicode="&#x2019;" horiz-adv-x="152" d="M67 616 L51 616 L51 714 L102 714 L102 620 L81 524 L52 524 L67 616 Z " />
<glyph glyph-name="quotesinglbase" unicode="&#x201a;" horiz-adv-x="151" d="M67 3 L50 3 L50 101 L102 101 L102 6 L81 -91 L52 -91 L67 3 Z " />
<glyph glyph-name="quotedblleft" unicode="&#x201c;" horiz-adv-x="266" d="M49 618 L69 715 L99 715 L83 622 L100 622 L100 525 L49 525 L49 618 Z M164 618 L186 715 L214 715 L199 622 L216 622 L216 525 L164 525 L164 618 Z " />
<glyph glyph-name="quotedblright" unicode="&#x201d;" horiz-adv-x="266" d="M67 616 L50 616 L50 714 L102 714 L102 620 L81 524 L52 524 L67 616 Z M182 616 L165 616 L165 714 L217 714 L217 620 L196 524 L167 524 L182 616 Z " />
<glyph glyph-name="quotedblbase" unicode="&#x201e;" horiz-adv-x="266" d="M67 3 L50 3 L50 101 L102 101 L102 6 L81 -91 L52 -91 L67 3 Z M182 3 L165 3 L165 101 L217 101 L217 6 L196 -91 L167 -91 L182 3 Z " />
<glyph glyph-name="ampersand" unicode="&#x26;" horiz-adv-x="458" d="M192 -10 Q153 -10 124.5 5.5 Q96 21 78 47 Q60 73 51.5 107.5 Q43 142 43 180 Q43 210 48.5 240 Q54 270 67 297.5 Q80 325 101.5 348.5 Q123 372 155 390 Q128 434 108.5 482.5 Q89 531 89 576 Q89 602 95.5 628.5 Q102 655 118 676 Q134 697 159 710.5 Q184 724 222 724 Q253 724 276.5 712.5 Q300 701 315.5 681.5 Q331 662 338.5 637.5 Q346 613 346 586 Q346 450 222 377 L337 177 Q347 209 355 241.5 Q363 274 370 313 L415 307 Q407 260 394 215 Q381 170 363 125 L435 0 L376 0 L330 77 Q307 39 272 14.5 Q237 -10 192 -10 Z M198 38 Q234 38 262.5 63 Q291 88 308 118 L177 348 Q153 334 137.5 315 Q122 296 113 274.5 Q104 253 100.5 229.5 Q97 206 97 182 Q97 156 103 130.5 Q109 105 121.5 84.5 Q134 64 153 51 Q172 38 198 38 Z M201 414 Q252 445 273.5 485.5 Q295 526 295 583 Q295 624 275 653 Q255 682 218 682 Q197 682 182.5 673.5 Q168 665 159 651 Q150 637 145.5 618.5 Q141 600 141 580 Q141 545 158 503.5 Q175 462 201 414 Z " />
<glyph glyph-name="zero" unicode="0" horiz-adv-x="380" d="M189 -9 Q126 -9 88 27 Q50 63 50 130 L50 591 Q50 624 61.5 649 Q73 674 92.5 690.5 Q112 707 138 715.5 Q164 724 192 724 Q220 724 245.5 716 Q271 708 289.5 692 Q308 676 319 651.5 Q330 627 330 595 L330 129 Q330 94 319 68 Q308 42 289 25 Q270 8 244.5 -0.5 Q219 -9 189 -9 Z M192 38 Q238 38 258 65.5 Q278 93 278 127 L278 594 Q278 610 272.5 625.5 Q267 641 256 653 Q245 665 228.5 672 Q212 679 191 679 Q169 679 152.5 672 Q136 665 124.5 653 Q113 641 107.5 625.5 Q102 610 102 594 L102 126 Q102 93 124.5 65.5 Q147 38 192 38 Z " />
<glyph glyph-name="one" unicode="1" horiz-adv-x="238" d="M101 656 L42 636 L36 675 L120 713 L153 713 L153 0 L101 0 L101 656 Z " />
<glyph glyph-name="two" unicode="2" horiz-adv-x="329" d="M41 35 L130 201 Q182 297 207 378.5 Q232 460 233 542 L233 556 Q233 607 215.5 642.5 Q198 678 158 678 Q139 678 125.5 670.5 Q112 663 103.5 651 Q95 639 91 623 Q87 607 87 590 L87 547 L38 547 L38 580 Q38 645 70 684.5 Q102 724 162 724 Q285 724 285 554 Q285 497 276.5 447.5 Q268 398 252.5 352 Q237 306 216.5 262.5 Q196 219 172 174 L104 46 L294 46 L294 0 L41 0 L41 35 Z " />
<glyph glyph-name="three" unicode="3" horiz-adv-x="340" d="M166 -9 Q127 -9 101.5 3.5 Q76 16 61 37 Q46 58 40 86.5 Q34 115 34 147 L34 172 L85 172 L85 144 Q85 98 105.5 68 Q126 38 165 38 Q186 38 201.5 46.5 Q217 55 226.5 74 Q236 93 241 123.5 Q246 154 246 198 Q246 242 237 271 Q228 300 214 316.5 Q200 333 183.5 339.5 Q167 346 152 346 L108 346 L108 394 L152 394 Q194 394 215.5 433 Q237 472 237 544 Q237 582 231 608 Q225 634 214.5 649.5 Q204 665 190 672 Q176 679 160 679 Q124 679 106 654 Q88 629 88 581 L88 549 L39 549 L39 579 Q39 655 73 689.5 Q107 724 165 724 Q201 724 225 708.5 Q249 693 263.5 668 Q278 643 284 611.5 Q290 580 290 548 Q290 519 286 491 Q282 463 272.5 439.5 Q263 416 248 399 Q233 382 211 375 L211 373 Q235 365 251.5 346.5 Q268 328 278.5 302.5 Q289 277 293.5 248 Q298 219 298 192 Q298 91 262 41 Q226 -9 166 -9 Z " />
<glyph glyph-name="four" unicode="4" horiz-adv-x="367" d="M220 195 L32 195 L32 240 L205 713 L258 713 L81 242 L220 242 L220 408 L270 450 L270 242 L329 242 L329 195 L270 195 L270 0 L220 0 L220 195 Z " />
<glyph glyph-name="five" unicode="5" horiz-adv-x="361" d="M177 -9 Q142 -9 118 2.5 Q94 14 78 33 Q62 52 55 77.5 Q48 103 48 131 L48 172 L98 172 L98 137 Q98 95 119 67 Q140 39 178 39 Q213 39 237 67.5 Q261 96 261 159 L261 295 Q261 352 241 379 Q221 406 183 406 Q157 406 137 391 Q117 376 104 356 L59 358 L73 713 L295 713 L295 667 L116 667 L107 413 Q125 432 147.5 442 Q170 452 199 452 Q222 452 243 444 Q264 436 279.5 419 Q295 402 304 376.5 Q313 351 313 315 L313 160 Q313 84 277 37.5 Q241 -9 177 -9 Z " />
<glyph glyph-name="six" unicode="6" horiz-adv-x="366" d="M180 -9 Q117 -9 83.5 30.5 Q50 70 50 133 L50 587 Q50 656 89 690 Q128 724 186 724 Q246 724 278.5 690.5 Q311 657 311 607 L311 549 L262 549 L262 598 Q262 630 243.5 654.5 Q225 679 184 679 Q161 679 145.5 671 Q130 663 120.5 650 Q111 637 106.5 620.5 Q102 604 102 588 L102 386 Q119 412 147.5 425 Q176 438 203 438 Q252 438 284 409 Q316 380 316 325 L316 126 Q316 60 278 25.5 Q240 -9 180 -9 Z M184 37 Q206 37 221.5 45 Q237 53 246.5 65.5 Q256 78 260 93 Q264 108 264 123 L264 318 Q264 356 244 374.5 Q224 393 191 393 Q170 393 153.5 385 Q137 377 125.5 363.5 Q114 350 108 333.5 Q102 317 102 300 L102 125 Q102 110 107 94.5 Q112 79 122 66 Q132 53 147.5 45 Q163 37 184 37 Z " />
<glyph glyph-name="seven" unicode="7" horiz-adv-x="321" d="M98 0 Q99 108 110.5 206.5 Q122 305 141.5 390.5 Q161 476 186 546 Q211 616 238 666 L36 666 L36 713 L293 713 L293 673 Q255 608 228 526.5 Q201 445 183.5 356 Q166 267 158 176 Q150 85 149 0 L98 0 Z " />
<glyph glyph-name="eight" unicode="8" horiz-adv-x="359" d="M177 -8 Q116 -8 80 27 Q44 62 44 123 L44 262 Q44 300 63 328 Q82 356 112 370 Q82 384 66.5 412.5 Q51 441 51 475 L51 598 Q51 629 61.5 653 Q72 677 90 692.5 Q108 708 132 716 Q156 724 182 724 Q208 724 231 717 Q254 710 271.5 695 Q289 680 299.5 657.5 Q310 635 310 604 L310 478 Q310 442 294 413.5 Q278 385 247 371 Q276 360 295.5 333 Q315 306 315 266 L315 124 Q315 58 276 25 Q237 -8 177 -8 Z M180 38 Q222 38 242.5 62.5 Q263 87 263 121 L263 267 Q263 303 238.5 326.5 Q214 350 180 350 Q144 350 120.5 326.5 Q97 303 97 268 L97 120 Q97 88 119 63 Q141 38 180 38 Z M181 390 Q199 390 214 397 Q229 404 239 416 Q249 428 254.5 443 Q260 458 260 474 L260 604 Q260 637 237 658 Q214 679 180 679 Q145 679 123 657 Q101 635 101 603 L101 474 Q101 439 124.5 414.5 Q148 390 181 390 Z " />
<glyph glyph-name="nine" unicode="9" horiz-adv-x="365" d="M180 -9 Q120 -9 87 25 Q54 59 54 115 L54 172 L103 172 L103 123 Q103 85 123 61 Q143 37 181 37 Q221 37 242 65 Q263 93 263 131 L263 336 Q246 307 218 294 Q190 281 163 281 Q113 281 81.5 310.5 Q50 340 50 394 L50 588 Q50 654 87.5 689 Q125 724 185 724 Q248 724 281.5 685 Q315 646 315 584 L315 142 Q315 68 276.5 29.5 Q238 -9 180 -9 Z M174 324 Q191 324 207 331.5 Q223 339 235.5 351.5 Q248 364 255.5 380.5 Q263 397 263 414 L263 590 Q263 605 258 620.5 Q253 636 243 648.5 Q233 661 217.5 669.5 Q202 678 181 678 Q158 678 143 669.5 Q128 661 119 647.5 Q110 634 106 618 Q102 602 102 588 L102 402 Q102 364 122 344 Q142 324 174 324 Z " />
<glyph glyph-name="A" unicode="A" horiz-adv-x="424" d="M178 715 L247 715 L392 0 L339 0 L292 239 L128 239 L82 0 L32 0 L178 715 Z M283 284 L212 653 L209 653 L137 284 L283 284 Z " />
<glyph glyph-name="Agrave" unicode="&#xc0;" horiz-adv-x="424" d="M178 715 L247 715 L392 0 L339 0 L292 239 L128 239 L82 0 L32 0 L178 715 Z M283 284 L212 653 L209 653 L137 284 L283 284 Z M101 903 L161 903 L230 764 L188 764 L101 903 Z " />
<glyph glyph-name="Aacute" unicode="&#xc1;" horiz-adv-x="424" d="M178 715 L247 715 L392 0 L339 0 L292 239 L128 239 L82 0 L32 0 L178 715 Z M283 284 L212 653 L209 653 L137 284 L283 284 Z M265 903 L325 903 L238 764 L196 764 L265 903 Z " />
<glyph glyph-name="Acircumflex" unicode="&#xc2;" horiz-adv-x="424" d="M178 715 L247 715 L392 0 L339 0 L292 239 L128 239 L82 0 L32 0 L178 715 Z M283 284 L212 653 L209 653 L137 284 L283 284 Z M193 903 L233 903 L301 764 L254 764 L211 857 L168 764 L123 764 L193 903 Z " />
<glyph glyph-name="Atilde" unicode="&#xc3;" horiz-adv-x="424" d="M178 715 L247 715 L392 0 L339 0 L292 239 L128 239 L82 0 L32 0 L178 715 Z M283 284 L212 653 L209 653 L137 284 L283 284 Z M94 779 Q98 810 114.5 832 Q131 854 160 854 Q173 854 186 849.5 Q199 845 212 840 Q225 835 238 830.5 Q251 826 264 826 Q278 826 284.5 835 Q291 844 296 861 L330 854 Q326 823 308.5 801.5 Q291 780 264 780 Q250 780 236 784.5 Q222 789 208.5 794.5 Q195 800 182.5 804.5 Q170 809 160 809 Q145 809 139 800 Q133 791 129 774 L94 779 Z " />
<glyph glyph-name="Adieresis" unicode="&#xc4;" horiz-adv-x="424" d="M178 715 L247 715 L392 0 L339 0 L292 239 L128 239 L82 0 L32 0 L178 715 Z M283 284 L212 653 L209 653 L137 284 L283 284 Z M130 877 L181 877 L181 779 L130 779 L130 877 Z M243 877 L294 877 L294 779 L243 779 L243 877 Z " />
<glyph glyph-name="Aring" unicode="&#xc5;" horiz-adv-x="424" d="M178 715 L247 715 L392 0 L339 0 L292 239 L128 239 L82 0 L32 0 L178 715 Z M283 284 L212 653 L209 653 L137 284 L283 284 Z M212 757 Q174 757 155.5 779.5 Q137 802 137 831 Q137 863 157.5 886.5 Q178 910 212 910 Q249 910 268 888.5 Q287 867 287 836 Q287 802 266 779.5 Q245 757 212 757 Z M212 786 Q232 786 243.5 798.5 Q255 811 255 833 Q255 853 244.5 867 Q234 881 211 881 Q191 881 181 867.5 Q171 854 171 832 Q171 809 182.5 797.5 Q194 786 212 786 Z " />
<glyph glyph-name="AE" unicode="&#xc6;" horiz-adv-x="564" d="M238 714 L523 714 L523 668 L324 668 L324 398 L484 398 L484 352 L324 352 L324 47 L524 47 L524 0 L272 0 L272 245 L145 245 L75 0 L22 0 L238 714 Z M272 289 L272 667 L270 667 L159 289 L272 289 Z " />
<glyph glyph-name="B" unicode="B" horiz-adv-x="401" d="M66 713 L208 713 Q245 713 271 700.5 Q297 688 313.5 665 Q330 642 337.5 609.5 Q345 577 345 537 Q345 471 320 425.5 Q295 380 249 372 L249 368 Q278 362 297.5 346.5 Q317 331 329 308 Q341 285 346 256 Q351 227 351 196 Q351 142 341 104.5 Q331 67 312.5 43.5 Q294 20 268.5 10 Q243 0 213 0 L66 0 L66 713 Z M205 45 Q250 45 274.5 83.5 Q299 122 299 199 Q299 277 268 311.5 Q237 346 190 346 L118 346 L118 45 L205 45 Z M189 388 Q233 388 263.5 422 Q294 456 294 532 Q294 604 269 636 Q244 668 203 668 L118 668 L118 388 L189 388 Z " />
<glyph glyph-name="C" unicode="C" horiz-adv-x="407" d="M213 -9 Q139 -9 96.5 29.5 Q54 68 54 138 L54 571 Q54 639 95.5 681.5 Q137 724 212 724 Q248 724 275.5 713.5 Q303 703 321.5 685 Q340 667 349.5 643 Q359 619 359 592 L359 510 L312 510 L312 580 Q312 624 287.5 651.5 Q263 679 211 679 Q182 679 162 670 Q142 661 129.5 646 Q117 631 111.5 610.5 Q106 590 106 568 L106 148 Q106 92 135 65 Q164 38 213 38 Q264 38 288 66.5 Q312 95 312 135 L312 207 L359 207 L359 132 Q359 70 320.5 30.5 Q282 -9 213 -9 Z " />
<glyph glyph-name="Ccedilla" unicode="&#xc7;" horiz-adv-x="407" d="M212 -170 Q199 -170 181.5 -168 Q164 -166 147 -161 L147 -122 Q164 -126 178 -128 Q192 -130 209 -130 Q228 -130 239.5 -124 Q251 -118 251 -103 Q251 -89 238.5 -82.5 Q226 -76 202 -74 L178 -72 L194 -8 Q128 -3 91 34.5 Q54 72 54 138 L54 571 Q54 639 95.5 681.5 Q137 724 212 724 Q248 724 275.5 713.5 Q303 703 321.5 685 Q340 667 349.5 643 Q359 619 359 592 L359 510 L312 510 L312 580 Q312 624 287.5 651.5 Q263 679 211 679 Q182 679 162 670 Q142 661 129.5 646 Q117 631 111.5 610.5 Q106 590 106 568 L106 148 Q106 92 135 65 Q164 38 213 38 Q264 38 288 66.5 Q312 95 312 135 L312 207 L359 207 L359 132 Q359 73 323.5 34.5 Q288 -4 225 -8 L216 -45 Q231 -46 245.5 -49 Q260 -52 271.5 -58.5 Q283 -65 290 -76 Q297 -87 297 -103 Q297 -132 272.5 -151 Q248 -170 212 -170 Z " />
<glyph glyph-name="D" unicode="D" horiz-adv-x="421" d="M66 713 L216 713 Q248 713 275.5 704.5 Q303 696 323.5 679 Q344 662 355.5 636 Q367 610 367 574 L367 152 Q367 75 323.5 37.5 Q280 0 213 0 L66 0 L66 713 Z M210 46 Q239 46 259 55.5 Q279 65 291.5 80 Q304 95 309.5 113.5 Q315 132 315 149 L315 568 Q315 588 308.5 606 Q302 624 289.5 637.5 Q277 651 257.5 659 Q238 667 211 667 L118 667 L118 46 L210 46 Z " />
<glyph glyph-name="Eth" unicode="&#xd0;" horiz-adv-x="426" d="M23 391 L71 391 L71 713 L221 713 Q253 713 280.5 704.5 Q308 696 328.5 679 Q349 662 360.5 636 Q372 610 372 574 L372 152 Q372 75 328.5 37.5 Q285 0 218 0 L71 0 L71 349 L23 349 L23 391 Z M215 46 Q244 46 264 55.5 Q284 65 296.5 80 Q309 95 314.5 113.5 Q320 132 320 149 L320 568 Q320 588 313.5 606 Q307 624 294.5 637.5 Q282 651 262.5 659 Q243 667 216 667 L123 667 L123 391 L233 391 L233 349 L123 349 L123 46 L215 46 Z " />
<glyph glyph-name="E" unicode="E" horiz-adv-x="359" d="M66 713 L318 713 L318 667 L118 667 L118 399 L279 399 L279 353 L118 353 L118 46 L319 46 L319 0 L66 0 L66 713 Z " />
<glyph glyph-name="Egrave" unicode="&#xc8;" horiz-adv-x="359" d="M66 713 L318 713 L318 667 L118 667 L118 399 L279 399 L279 353 L118 353 L118 46 L319 46 L319 0 L66 0 L66 713 Z M84 903 L144 903 L213 764 L171 764 L84 903 Z " />
<glyph glyph-name="Eacute" unicode="&#xc9;" horiz-adv-x="359" d="M66 713 L318 713 L318 667 L118 667 L118 399 L279 399 L279 353 L118 353 L118 46 L319 46 L319 0 L66 0 L66 713 Z M239 903 L299 903 L212 764 L170 764 L239 903 Z " />
<glyph glyph-name="Ecircumflex" unicode="&#xca;" horiz-adv-x="359" d="M66 713 L318 713 L318 667 L118 667 L118 399 L279 399 L279 353 L118 353 L118 46 L319 46 L319 0 L66 0 L66 713 Z M173 903 L213 903 L281 764 L234 764 L191 857 L148 764 L103 764 L173 903 Z " />
<glyph glyph-name="Edieresis" unicode="&#xcb;" horiz-adv-x="359" d="M66 713 L318 713 L318 667 L118 667 L118 399 L279 399 L279 353 L118 353 L118 46 L319 46 L319 0 L66 0 L66 713 Z M110 877 L161 877 L161 779 L110 779 L110 877 Z M223 877 L274 877 L274 779 L223 779 L223 877 Z " />
<glyph glyph-name="F" unicode="F" horiz-adv-x="347" d="M66 713 L317 713 L317 667 L118 667 L118 397 L277 397 L277 351 L118 351 L118 0 L66 0 L66 713 Z " />
<glyph glyph-name="G" unicode="G" horiz-adv-x="414" d="M213 -9 Q139 -9 96.5 29.5 Q54 68 54 138 L54 570 Q54 604 64.5 632.5 Q75 661 95.5 681.5 Q116 702 145 713.5 Q174 725 212 725 Q248 725 275.5 714 Q303 703 321.5 685 Q340 667 349.5 643 Q359 619 359 592 L359 512 L311 512 L311 583 Q311 626 285.5 653 Q260 680 211 680 Q182 680 162 670.5 Q142 661 129.5 645.5 Q117 630 111.5 609 Q106 588 106 565 L106 146 Q106 95 133.5 66.5 Q161 38 212 38 Q241 38 260 46 Q279 54 290 67.5 Q301 81 305.5 99 Q310 117 310 137 L310 328 L209 328 L209 373 L362 373 L362 132 Q362 71 323.5 31 Q285 -9 213 -9 Z " />
<glyph glyph-name="H" unicode="H" horiz-adv-x="441" d="M66 713 L118 713 L118 393 L323 393 L323 713 L375 713 L375 0 L323 0 L323 343 L118 343 L118 0 L66 0 L66 713 Z " />
<glyph glyph-name="I" unicode="I" horiz-adv-x="184" d="M66 713 L118 713 L118 0 L66 0 L66 713 Z " />
<glyph glyph-name="Igrave" unicode="&#xcc;" horiz-adv-x="184" d="M66 713 L118 713 L118 0 L66 0 L66 713 Z M-16 903 L44 903 L113 764 L71 764 L-16 903 Z " />
<glyph glyph-name="Iacute" unicode="&#xcd;" horiz-adv-x="184" d="M66 713 L118 713 L118 0 L66 0 L66 713 Z M143 903 L203 903 L116 764 L74 764 L143 903 Z " />
<glyph glyph-name="Icircumflex" unicode="&#xce;" horiz-adv-x="184" d="M66 713 L118 713 L118 0 L66 0 L66 713 Z M73 903 L113 903 L181 764 L134 764 L91 857 L48 764 L3 764 L73 903 Z " />
<glyph glyph-name="Idieresis" unicode="&#xcf;" horiz-adv-x="184" d="M66 713 L118 713 L118 0 L66 0 L66 713 Z M10 877 L61 877 L61 779 L10 779 L10 877 Z M123 877 L174 877 L174 779 L123 779 L123 877 Z " />
<glyph glyph-name="J" unicode="J" horiz-adv-x="392" d="M185 -10 Q116 -10 80 28 Q44 66 44 132 L44 260 L95 260 L95 138 Q95 119 99 101 Q103 83 113.5 68.5 Q124 54 142 45.5 Q160 37 187 37 Q213 37 230 45.5 Q247 54 257.5 67.5 Q268 81 272.5 99 Q277 117 277 137 L277 713 L329 713 L329 140 Q329 74 293 32 Q257 -10 185 -10 Z " />
<glyph glyph-name="K" unicode="K" horiz-adv-x="404" d="M66 713 L118 713 L118 344 L316 713 L371 713 L227 444 L373 0 L316 0 L189 388 L118 259 L118 0 L66 0 L66 713 Z " />
<glyph glyph-name="L" unicode="L" horiz-adv-x="344" d="M66 713 L118 713 L118 47 L319 47 L319 0 L66 0 L66 713 Z " />
<glyph glyph-name="Lslash" unicode="&#x141;" horiz-adv-x="357" d="M23 310 L79 366 L79 713 L131 713 L131 419 L231 520 L231 465 L131 364 L131 47 L332 47 L332 0 L79 0 L79 311 L23 255 L23 310 Z " />
<glyph glyph-name="M" unicode="M" horiz-adv-x="499" d="M66 713 L125 713 L249 393 L251 393 L375 713 L433 713 L433 0 L385 0 L385 598 L383 598 L266 306 L230 306 L116 597 L114 597 L114 0 L66 0 L66 713 Z " />
<glyph glyph-name="N" unicode="N" horiz-adv-x="440" d="M66 713 L126 713 L326 148 L328 148 L328 713 L374 713 L374 0 L323 0 L114 607 L112 607 L112 0 L66 0 L66 713 Z " />
<glyph glyph-name="Ntilde" unicode="&#xd1;" horiz-adv-x="440" d="M66 713 L126 713 L326 148 L328 148 L328 713 L374 713 L374 0 L323 0 L114 607 L112 607 L112 0 L66 0 L66 713 Z M114 779 Q118 810 134.5 832 Q151 854 180 854 Q193 854 206 849.5 Q219 845 232 840 Q245 835 258 830.5 Q271 826 284 826 Q298 826 304.5 835 Q311 844 316 861 L350 854 Q346 823 328.5 801.5 Q311 780 284 780 Q270 780 256 784.5 Q242 789 228.5 794.5 Q215 800 202.5 804.5 Q190 809 180 809 Q165 809 159 800 Q153 791 149 774 L114 779 Z " />
<glyph glyph-name="O" unicode="O" horiz-adv-x="424" d="M210 -9 Q139 -9 96.5 30.5 Q54 70 54 148 L54 567 Q54 605 66 634.5 Q78 664 99.5 684 Q121 704 150 714 Q179 724 214 724 Q247 724 275.5 715 Q304 706 325 688 Q346 670 358 642.5 Q370 615 370 578 L370 153 Q370 72 325 31.5 Q280 -9 210 -9 Z M213 37 Q241 37 260.5 46 Q280 55 293 70 Q306 85 312 105 Q318 125 318 146 L318 576 Q318 621 290.5 649.5 Q263 678 211 678 Q158 678 132 646.5 Q106 615 106 572 L106 145 Q106 123 112.5 103.5 Q119 84 132.5 69 Q146 54 166 45.5 Q186 37 213 37 Z " />
<glyph glyph-name="Ograve" unicode="&#xd2;" horiz-adv-x="424" d="M210 -9 Q139 -9 96.5 30.5 Q54 70 54 148 L54 567 Q54 605 66 634.5 Q78 664 99.5 684 Q121 704 150 714 Q179 724 214 724 Q247 724 275.5 715 Q304 706 325 688 Q346 670 358 642.5 Q370 615 370 578 L370 153 Q370 72 325 31.5 Q280 -9 210 -9 Z M213 37 Q241 37 260.5 46 Q280 55 293 70 Q306 85 312 105 Q318 125 318 146 L318 576 Q318 621 290.5 649.5 Q263 678 211 678 Q158 678 132 646.5 Q106 615 106 572 L106 145 Q106 123 112.5 103.5 Q119 84 132.5 69 Q146 54 166 45.5 Q186 37 213 37 Z M104 903 L164 903 L233 764 L191 764 L104 903 Z " />
<glyph glyph-name="Oacute" unicode="&#xd3;" horiz-adv-x="424" d="M210 -9 Q139 -9 96.5 30.5 Q54 70 54 148 L54 567 Q54 605 66 634.5 Q78 664 99.5 684 Q121 704 150 714 Q179 724 214 724 Q247 724 275.5 715 Q304 706 325 688 Q346 670 358 642.5 Q370 615 370 578 L370 153 Q370 72 325 31.5 Q280 -9 210 -9 Z M213 37 Q241 37 260.5 46 Q280 55 293 70 Q306 85 312 105 Q318 125 318 146 L318 576 Q318 621 290.5 649.5 Q263 678 211 678 Q158 678 132 646.5 Q106 615 106 572 L106 145 Q106 123 112.5 103.5 Q119 84 132.5 69 Q146 54 166 45.5 Q186 37 213 37 Z M259 903 L319 903 L232 764 L190 764 L259 903 Z " />
<glyph glyph-name="Ocircumflex" unicode="&#xd4;" horiz-adv-x="424" d="M210 -9 Q139 -9 96.5 30.5 Q54 70 54 148 L54 567 Q54 605 66 634.5 Q78 664 99.5 684 Q121 704 150 714 Q179 724 214 724 Q247 724 275.5 715 Q304 706 325 688 Q346 670 358 642.5 Q370 615 370 578 L370 153 Q370 72 325 31.5 Q280 -9 210 -9 Z M213 37 Q241 37 260.5 46 Q280 55 293 70 Q306 85 312 105 Q318 125 318 146 L318 576 Q318 621 290.5 649.5 Q263 678 211 678 Q158 678 132 646.5 Q106 615 106 572 L106 145 Q106 123 112.5 103.5 Q119 84 132.5 69 Q146 54 166 45.5 Q186 37 213 37 Z M193 903 L233 903 L301 764 L254 764 L211 857 L168 764 L123 764 L193 903 Z " />
<glyph glyph-name="Otilde" unicode="&#xd5;" horiz-adv-x="424" d="M210 -9 Q139 -9 96.5 30.5 Q54 70 54 148 L54 567 Q54 605 66 634.5 Q78 664 99.5 684 Q121 704 150 714 Q179 724 214 724 Q247 724 275.5 715 Q304 706 325 688 Q346 670 358 642.5 Q370 615 370 578 L370 153 Q370 72 325 31.5 Q280 -9 210 -9 Z M213 37 Q241 37 260.5 46 Q280 55 293 70 Q306 85 312 105 Q318 125 318 146 L318 576 Q318 621 290.5 649.5 Q263 678 211 678 Q158 678 132 646.5 Q106 615 106 572 L106 145 Q106 123 112.5 103.5 Q119 84 132.5 69 Q146 54 166 45.5 Q186 37 213 37 Z M94 779 Q98 810 114.5 832 Q131 854 160 854 Q173 854 186 849.5 Q199 845 212 840 Q225 835 238 830.5 Q251 826 264 826 Q278 826 284.5 835 Q291 844 296 861 L330 854 Q326 823 308.5 801.5 Q291 780 264 780 Q250 780 236 784.5 Q222 789 208.5 794.5 Q195 800 182.5 804.5 Q170 809 160 809 Q145 809 139 800 Q133 791 129 774 L94 779 Z " />
<glyph glyph-name="Odieresis" unicode="&#xd6;" horiz-adv-x="424" d="M210 -9 Q139 -9 96.5 30.5 Q54 70 54 148 L54 567 Q54 605 66 634.5 Q78 664 99.5 684 Q121 704 150 714 Q179 724 214 724 Q247 724 275.5 715 Q304 706 325 688 Q346 670 358 642.5 Q370 615 370 578 L370 153 Q370 72 325 31.5 Q280 -9 210 -9 Z M213 37 Q241 37 260.5 46 Q280 55 293 70 Q306 85 312 105 Q318 125 318 146 L318 576 Q318 621 290.5 649.5 Q263 678 211 678 Q158 678 132 646.5 Q106 615 106 572 L106 145 Q106 123 112.5 103.5 Q119 84 132.5 69 Q146 54 166 45.5 Q186 37 213 37 Z M130 877 L181 877 L181 779 L130 779 L130 877 Z M243 877 L294 877 L294 779 L243 779 L243 877 Z " />
<glyph glyph-name="Oslash" unicode="&#xd8;" horiz-adv-x="424" d="M65 -32 L89 39 Q54 79 54 148 L54 567 Q54 605 66 634.5 Q78 664 99.5 684 Q121 704 150 714 Q179 724 214 724 Q269 724 310 699 L329 756 L369 745 L343 668 Q356 651 363 628.5 Q370 606 370 578 L370 153 Q370 72 325 31.5 Q280 -9 210 -9 Q160 -9 123 11 L106 -42 L65 -32 Z M106 145 Q106 127 111 107 L292 647 Q278 661 258 669.5 Q238 678 211 678 Q158 678 132 646.5 Q106 615 106 572 L106 145 Z M213 37 Q241 37 260.5 46 Q280 55 293 70 Q306 85 312 105 Q318 125 318 146 L318 576 Q318 586 317 590 L140 62 Q168 37 213 37 Z " />
<glyph glyph-name="OE" unicode="&#x152;" horiz-adv-x="599" d="M204 0 Q133 0 93.5 39 Q54 78 54 156 L54 556 Q54 633 97.5 673 Q141 713 210 713 L557 713 L557 667 L357 667 L357 398 L519 398 L519 352 L357 352 L357 46 L559 46 L559 0 L204 0 Z M305 46 L305 667 L211 667 Q185 667 165 658.5 Q145 650 132 635 Q119 620 112.5 600.5 Q106 581 106 560 L106 155 Q106 133 112.5 113.5 Q119 94 132.5 79 Q146 64 166 55 Q186 46 213 46 L305 46 Z " />
<glyph glyph-name="P" unicode="P" horiz-adv-x="399" d="M66 713 L197 713 Q240 713 269.5 697.5 Q299 682 317 655 Q335 628 343 591 Q351 554 351 512 Q351 465 341 426 Q331 387 311 359.5 Q291 332 260.5 317 Q230 302 189 302 L118 302 L118 0 L66 0 L66 713 Z M186 348 Q245 348 272 390.5 Q299 433 299 512 Q299 543 294 571 Q289 599 276.5 620 Q264 641 243.5 653 Q223 665 193 665 L118 665 L118 348 L186 348 Z " />
<glyph glyph-name="Thorn" unicode="&#xde;" horiz-adv-x="401" d="M66 713 L118 713 L118 566 L199 566 Q242 566 271.5 550.5 Q301 535 319 508 Q337 481 345 444.5 Q353 408 353 366 Q353 319 343 280.5 Q333 242 313 214.5 Q293 187 262.5 172 Q232 157 191 157 L118 157 L118 0 L66 0 L66 713 Z M186 203 Q246 203 273.5 245 Q301 287 301 366 Q301 397 296 425 Q291 453 278.5 474 Q266 495 245.5 507 Q225 519 195 519 L118 519 L118 203 L186 203 Z " />
<glyph glyph-name="Q" unicode="Q" horiz-adv-x="424" d="M264 0 Q241 -9 210 -9 Q139 -9 96.5 30.5 Q54 70 54 148 L54 567 Q54 605 66 634.5 Q78 664 99.5 684 Q121 704 150 714 Q179 724 214 724 Q247 724 275.5 715 Q304 706 325 688 Q346 670 358 642.5 Q370 615 370 578 L370 153 Q370 109 354.5 77.5 Q339 46 312 29 L395 -27 L362 -70 L264 0 Z M213 37 Q241 37 260.5 46 Q280 55 293 70 Q306 85 312 105 Q318 125 318 146 L318 576 Q318 621 290.5 649.5 Q263 678 211 678 Q158 678 132 646.5 Q106 615 106 572 L106 145 Q106 123 112.5 103.5 Q119 84 132.5 69 Q146 54 166 45.5 Q186 37 213 37 Z " />
<glyph glyph-name="R" unicode="R" horiz-adv-x="408" d="M66 713 L198 713 Q280 713 317 661 Q354 609 354 522 Q354 447 327.5 398 Q301 349 254 338 L362 0 L308 0 L203 325 L118 325 L118 0 L66 0 L66 713 Z M201 368 Q253 368 277.5 407.5 Q302 447 302 515 Q302 542 297.5 569 Q293 596 281 617.5 Q269 639 248.5 652.5 Q228 666 197 666 L118 666 L118 368 L201 368 Z " />
<glyph glyph-name="S" unicode="S" horiz-adv-x="366" d="M187 -9 Q121 -9 83 32.5 Q45 74 39 155 L90 157 Q95 100 118.5 67 Q142 34 187 34 Q213 34 230.5 44.5 Q248 55 258.5 71.5 Q269 88 273.5 108.5 Q278 129 278 150 Q278 188 262.5 226 Q247 264 218 299 L126 409 Q93 449 72 490 Q51 531 51 576 Q51 639 85.5 681.5 Q120 724 188 724 Q243 724 279.5 690 Q316 656 321 574 L272 573 Q265 631 243.5 655.5 Q222 680 185 680 Q146 680 123 656 Q100 632 100 580 Q100 544 120 510 Q140 476 169 441 L248 347 Q286 301 306.5 255 Q327 209 327 155 Q327 81 291.5 36 Q256 -9 187 -9 Z " />
<glyph glyph-name="Scaron" unicode="&#x160;" horiz-adv-x="366" d="M187 -9 Q121 -9 83 32.5 Q45 74 39 155 L90 157 Q95 100 118.5 67 Q142 34 187 34 Q213 34 230.5 44.5 Q248 55 258.5 71.5 Q269 88 273.5 108.5 Q278 129 278 150 Q278 188 262.5 226 Q247 264 218 299 L126 409 Q93 449 72 490 Q51 531 51 576 Q51 639 85.5 681.5 Q120 724 188 724 Q243 724 279.5 690 Q316 656 321 574 L272 573 Q265 631 243.5 655.5 Q222 680 185 680 Q146 680 123 656 Q100 632 100 580 Q100 544 120 510 Q140 476 169 441 L248 347 Q286 301 306.5 255 Q327 209 327 155 Q327 81 291.5 36 Q256 -9 187 -9 Z M94 903 L141 903 L184 810 L227 903 L272 903 L202 764 L162 764 L94 903 Z " />
<glyph glyph-name="T" unicode="T" horiz-adv-x="373" d="M161 667 L24 667 L24 713 L349 713 L349 667 L213 667 L213 0 L161 0 L161 667 Z " />
<glyph glyph-name="U" unicode="U" horiz-adv-x="429" d="M213 -10 Q181 -10 153.5 -1 Q126 8 105.5 26.5 Q85 45 73.5 73.5 Q62 102 62 140 L62 713 L114 713 L114 150 Q114 120 122.5 99 Q131 78 145 64.5 Q159 51 177.5 44.5 Q196 38 217 38 Q271 38 293.5 69.5 Q316 101 316 148 L316 713 L366 713 L366 147 Q366 75 325.5 32.5 Q285 -10 213 -10 Z " />
<glyph glyph-name="Ugrave" unicode="&#xd9;" horiz-adv-x="429" d="M213 -10 Q181 -10 153.5 -1 Q126 8 105.5 26.5 Q85 45 73.5 73.5 Q62 102 62 140 L62 713 L114 713 L114 150 Q114 120 122.5 99 Q131 78 145 64.5 Q159 51 177.5 44.5 Q196 38 217 38 Q271 38 293.5 69.5 Q316 101 316 148 L316 713 L366 713 L366 147 Q366 75 325.5 32.5 Q285 -10 213 -10 Z M113 903 L173 903 L242 764 L200 764 L113 903 Z " />
<glyph glyph-name="Uacute" unicode="&#xda;" horiz-adv-x="429" d="M213 -10 Q181 -10 153.5 -1 Q126 8 105.5 26.5 Q85 45 73.5 73.5 Q62 102 62 140 L62 713 L114 713 L114 150 Q114 120 122.5 99 Q131 78 145 64.5 Q159 51 177.5 44.5 Q196 38 217 38 Q271 38 293.5 69.5 Q316 101 316 148 L316 713 L366 713 L366 147 Q366 75 325.5 32.5 Q285 -10 213 -10 Z M261 903 L321 903 L234 764 L192 764 L261 903 Z " />
<glyph glyph-name="Ucircumflex" unicode="&#xdb;" horiz-adv-x="429" d="M213 -10 Q181 -10 153.5 -1 Q126 8 105.5 26.5 Q85 45 73.5 73.5 Q62 102 62 140 L62 713 L114 713 L114 150 Q114 120 122.5 99 Q131 78 145 64.5 Q159 51 177.5 44.5 Q196 38 217 38 Q271 38 293.5 69.5 Q316 101 316 148 L316 713 L366 713 L366 147 Q366 75 325.5 32.5 Q285 -10 213 -10 Z M197 903 L237 903 L305 764 L258 764 L215 857 L172 764 L127 764 L197 903 Z " />
<glyph glyph-name="Udieresis" unicode="&#xdc;" horiz-adv-x="429" d="M213 -10 Q181 -10 153.5 -1 Q126 8 105.5 26.5 Q85 45 73.5 73.5 Q62 102 62 140 L62 713 L114 713 L114 150 Q114 120 122.5 99 Q131 78 145 64.5 Q159 51 177.5 44.5 Q196 38 217 38 Q271 38 293.5 69.5 Q316 101 316 148 L316 713 L366 713 L366 147 Q366 75 325.5 32.5 Q285 -10 213 -10 Z M137 877 L188 877 L188 779 L137 779 L137 877 Z M250 877 L301 877 L301 779 L250 779 L250 877 Z " />
<glyph glyph-name="V" unicode="V" horiz-adv-x="375" d="M25 713 L79 713 L188 110 L190 110 L301 713 L350 713 L216 -6 L162 -6 L25 713 Z " />
<glyph glyph-name="W" unicode="W" horiz-adv-x="542" d="M34 713 L87 713 L158 144 L160 144 L246 713 L302 713 L388 145 L390 145 L459 713 L508 713 L414 -6 L364 -6 L273 585 L271 585 L182 -6 L132 -6 L34 713 Z " />
<glyph glyph-name="X" unicode="X" horiz-adv-x="367" d="M154 362 L32 713 L88 713 L186 425 L284 713 L333 713 L211 366 L342 0 L287 0 L181 302 L76 0 L25 0 L154 362 Z " />
<glyph glyph-name="Y" unicode="Y" horiz-adv-x="356" d="M153 315 L22 713 L76 713 L182 385 L284 713 L334 713 L205 313 L205 0 L153 0 L153 315 Z " />
<glyph glyph-name="Yacute" unicode="&#xdd;" horiz-adv-x="356" d="M153 315 L22 713 L76 713 L182 385 L284 713 L334 713 L205 313 L205 0 L153 0 L153 315 Z M225 903 L285 903 L198 764 L156 764 L225 903 Z " />
<glyph glyph-name="Ydieresis" unicode="&#x178;" horiz-adv-x="356" d="M153 315 L22 713 L76 713 L182 385 L284 713 L334 713 L205 313 L205 0 L153 0 L153 315 Z M96 877 L147 877 L147 779 L96 779 L96 877 Z M209 877 L260 877 L260 779 L209 779 L209 877 Z " />
<glyph glyph-name="Z" unicode="Z" horiz-adv-x="326" d="M33 41 L235 667 L40 667 L40 713 L294 713 L294 678 L91 46 L292 46 L292 0 L33 0 L33 41 Z " />
<glyph glyph-name="Zcaron" unicode="&#x17d;" horiz-adv-x="326" d="M33 41 L235 667 L40 667 L40 713 L294 713 L294 678 L91 46 L292 46 L292 0 L33 0 L33 41 Z M74 903 L121 903 L164 810 L207 903 L252 903 L182 764 L142 764 L74 903 Z " />
<glyph glyph-name="a" unicode="a" horiz-adv-x="342" d="M143 -9 Q100 -9 70 28.5 Q40 66 40 146 Q40 220 79.5 265 Q119 310 182 312 L232 312 L232 426 Q232 455 215 471 Q198 487 166 487 Q137 487 118 472 Q99 457 99 428 L99 369 L51 369 L51 427 Q51 472 83 500 Q115 528 172 528 Q223 528 252.5 500.5 Q282 473 282 429 L282 129 Q282 116 282.5 98.5 Q283 81 283.5 62.5 Q284 44 284.5 27 Q285 10 285 0 L240 0 Q240 8 239 26 Q238 44 238 58 L235 58 Q222 22 194.5 6.5 Q167 -9 143 -9 Z M154 33 Q170 33 184.5 41.5 Q199 50 209.5 64.5 Q220 79 226 97 Q232 115 232 135 L232 274 L184 274 Q167 274 150.5 268.5 Q134 263 120.5 248.5 Q107 234 98.5 210.5 Q90 187 90 151 Q90 88 108.5 60.5 Q127 33 154 33 Z " />
<glyph glyph-name="agrave" unicode="&#xe0;" horiz-adv-x="342" d="M143 -9 Q100 -9 70 28.5 Q40 66 40 146 Q40 220 79.5 265 Q119 310 182 312 L232 312 L232 426 Q232 455 215 471 Q198 487 166 487 Q137 487 118 472 Q99 457 99 428 L99 369 L51 369 L51 427 Q51 472 83 500 Q115 528 172 528 Q223 528 252.5 500.5 Q282 473 282 429 L282 129 Q282 116 282.5 98.5 Q283 81 283.5 62.5 Q284 44 284.5 27 Q285 10 285 0 L240 0 Q240 8 239 26 Q238 44 238 58 L235 58 Q222 22 194.5 6.5 Q167 -9 143 -9 Z M154 33 Q170 33 184.5 41.5 Q199 50 209.5 64.5 Q220 79 226 97 Q232 115 232 135 L232 274 L184 274 Q167 274 150.5 268.5 Q134 263 120.5 248.5 Q107 234 98.5 210.5 Q90 187 90 151 Q90 88 108.5 60.5 Q127 33 154 33 Z M69 717 L129 717 L198 578 L156 578 L69 717 Z " />
<glyph glyph-name="aacute" unicode="&#xe1;" horiz-adv-x="342" d="M143 -9 Q100 -9 70 28.5 Q40 66 40 146 Q40 220 79.5 265 Q119 310 182 312 L232 312 L232 426 Q232 455 215 471 Q198 487 166 487 Q137 487 118 472 Q99 457 99 428 L99 369 L51 369 L51 427 Q51 472 83 500 Q115 528 172 528 Q223 528 252.5 500.5 Q282 473 282 429 L282 129 Q282 116 282.5 98.5 Q283 81 283.5 62.5 Q284 44 284.5 27 Q285 10 285 0 L240 0 Q240 8 239 26 Q238 44 238 58 L235 58 Q222 22 194.5 6.5 Q167 -9 143 -9 Z M154 33 Q170 33 184.5 41.5 Q199 50 209.5 64.5 Q220 79 226 97 Q232 115 232 135 L232 274 L184 274 Q167 274 150.5 268.5 Q134 263 120.5 248.5 Q107 234 98.5 210.5 Q90 187 90 151 Q90 88 108.5 60.5 Q127 33 154 33 Z M210 717 L270 717 L183 578 L141 578 L210 717 Z " />
<glyph glyph-name="acircumflex" unicode="&#xe2;" horiz-adv-x="342" d="M143 -9 Q100 -9 70 28.5 Q40 66 40 146 Q40 220 79.5 265 Q119 310 182 312 L232 312 L232 426 Q232 455 215 471 Q198 487 166 487 Q137 487 118 472 Q99 457 99 428 L99 369 L51 369 L51 427 Q51 472 83 500 Q115 528 172 528 Q223 528 252.5 500.5 Q282 473 282 429 L282 129 Q282 116 282.5 98.5 Q283 81 283.5 62.5 Q284 44 284.5 27 Q285 10 285 0 L240 0 Q240 8 239 26 Q238 44 238 58 L235 58 Q222 22 194.5 6.5 Q167 -9 143 -9 Z M154 33 Q170 33 184.5 41.5 Q199 50 209.5 64.5 Q220 79 226 97 Q232 115 232 135 L232 274 L184 274 Q167 274 150.5 268.5 Q134 263 120.5 248.5 Q107 234 98.5 210.5 Q90 187 90 151 Q90 88 108.5 60.5 Q127 33 154 33 Z M152 718 L192 718 L260 579 L213 579 L170 672 L127 579 L82 579 L152 718 Z " />
<glyph glyph-name="atilde" unicode="&#xe3;" horiz-adv-x="342" d="M143 -9 Q100 -9 70 28.5 Q40 66 40 146 Q40 220 79.5 265 Q119 310 182 312 L232 312 L232 426 Q232 455 215 471 Q198 487 166 487 Q137 487 118 472 Q99 457 99 428 L99 369 L51 369 L51 427 Q51 472 83 500 Q115 528 172 528 Q223 528 252.5 500.5 Q282 473 282 429 L282 129 Q282 116 282.5 98.5 Q283 81 283.5 62.5 Q284 44 284.5 27 Q285 10 285 0 L240 0 Q240 8 239 26 Q238 44 238 58 L235 58 Q222 22 194.5 6.5 Q167 -9 143 -9 Z M154 33 Q170 33 184.5 41.5 Q199 50 209.5 64.5 Q220 79 226 97 Q232 115 232 135 L232 274 L184 274 Q167 274 150.5 268.5 Q134 263 120.5 248.5 Q107 234 98.5 210.5 Q90 187 90 151 Q90 88 108.5 60.5 Q127 33 154 33 Z M54 594 Q58 625 74.5 647 Q91 669 120 669 Q133 669 146 664.5 Q159 660 172 655 Q185 650 198 645.5 Q211 641 224 641 Q238 641 244.5 650 Q251 659 256 676 L290 669 Q286 638 268.5 616.5 Q251 595 224 595 Q210 595 196 599.5 Q182 604 168.5 609.5 Q155 615 142.5 619.5 Q130 624 120 624 Q105 624 99 615 Q93 606 89 589 L54 594 Z " />
<glyph glyph-name="adieresis" unicode="&#xe4;" horiz-adv-x="342" d="M143 -9 Q100 -9 70 28.5 Q40 66 40 146 Q40 220 79.5 265 Q119 310 182 312 L232 312 L232 426 Q232 455 215 471 Q198 487 166 487 Q137 487 118 472 Q99 457 99 428 L99 369 L51 369 L51 427 Q51 472 83 500 Q115 528 172 528 Q223 528 252.5 500.5 Q282 473 282 429 L282 129 Q282 116 282.5 98.5 Q283 81 283.5 62.5 Q284 44 284.5 27 Q285 10 285 0 L240 0 Q240 8 239 26 Q238 44 238 58 L235 58 Q222 22 194.5 6.5 Q167 -9 143 -9 Z M154 33 Q170 33 184.5 41.5 Q199 50 209.5 64.5 Q220 79 226 97 Q232 115 232 135 L232 274 L184 274 Q167 274 150.5 268.5 Q134 263 120.5 248.5 Q107 234 98.5 210.5 Q90 187 90 151 Q90 88 108.5 60.5 Q127 33 154 33 Z M90 713 L141 713 L141 615 L90 615 L90 713 Z M203 713 L254 713 L254 615 L203 615 L203 713 Z " />
<glyph glyph-name="aring" unicode="&#xe5;" horiz-adv-x="342" d="M143 -9 Q100 -9 70 28.5 Q40 66 40 146 Q40 220 79.5 265 Q119 310 182 312 L232 312 L232 426 Q232 455 215 471 Q198 487 166 487 Q137 487 118 472 Q99 457 99 428 L99 369 L51 369 L51 427 Q51 472 83 500 Q115 528 172 528 Q223 528 252.5 500.5 Q282 473 282 429 L282 129 Q282 116 282.5 98.5 Q283 81 283.5 62.5 Q284 44 284.5 27 Q285 10 285 0 L240 0 Q240 8 239 26 Q238 44 238 58 L235 58 Q222 22 194.5 6.5 Q167 -9 143 -9 Z M154 33 Q170 33 184.5 41.5 Q199 50 209.5 64.5 Q220 79 226 97 Q232 115 232 135 L232 274 L184 274 Q167 274 150.5 268.5 Q134 263 120.5 248.5 Q107 234 98.5 210.5 Q90 187 90 151 Q90 88 108.5 60.5 Q127 33 154 33 Z M167 576 Q129 576 110.5 598.5 Q92 621 92 650 Q92 682 112.5 705.5 Q133 729 167 729 Q204 729 223 707.5 Q242 686 242 655 Q242 621 221 598.5 Q200 576 167 576 Z M167 605 Q187 605 198.5 617.5 Q210 630 210 652 Q210 672 199.5 686 Q189 700 166 700 Q146 700 136 686.5 Q126 673 126 651 Q126 628 137.5 616.5 Q149 605 167 605 Z " />
<glyph glyph-name="ae" unicode="&#xe6;" horiz-adv-x="522" d="M144 -10 Q100 -10 70 28 Q40 66 40 146 Q40 182 50.5 212.5 Q61 243 79.5 265 Q98 287 124 299.5 Q150 312 182 312 L233 312 L233 426 Q233 455 215.5 471 Q198 487 166 487 Q137 487 118 472 Q99 457 99 428 L99 369 L51 369 L51 427 Q51 472 83 500 Q115 528 172 528 Q203 528 227.5 516.5 Q252 505 263 482 Q278 505 303 516.5 Q328 528 360 528 Q419 528 448 491.5 Q477 455 477 395 L477 249 L283 249 L283 142 Q283 92 301 64 Q319 36 373 36 Q399 36 420.5 42.5 Q442 49 458 58 L473 20 Q454 6 425 -1.5 Q396 -9 367 -9 Q323 -9 293 7.5 Q263 24 249 59 Q240 38 227 25 Q214 12 200 4 Q186 -4 171.5 -7 Q157 -10 144 -10 Z M159 33 Q191 33 212 59 Q233 85 233 125 L233 274 L184 274 Q167 274 150.5 268.5 Q134 263 120.5 248.5 Q107 234 98.5 210.5 Q90 187 90 151 Q90 88 111 60.5 Q132 33 159 33 Z M428 291 L428 398 Q428 413 425 428.5 Q422 444 413.5 456.5 Q405 469 391 476.5 Q377 484 356 484 Q336 484 322 476 Q308 468 299.5 456 Q291 444 287 428.5 Q283 413 283 398 L283 291 L428 291 Z " />
<glyph glyph-name="b" unicode="b" horiz-adv-x="365" d="M205 -9 Q175 -9 149 8 Q123 25 113 54 L110 0 L66 0 L66 713 L116 713 L116 463 L118 463 Q135 499 163 513.5 Q191 528 216 528 Q241 528 260 519 Q279 510 291 495.5 Q303 481 309 462.5 Q315 444 315 425 L315 105 Q315 76 306 54.5 Q297 33 282 19 Q267 5 247 -2 Q227 -9 205 -9 Z M200 36 Q231 36 248 54 Q265 72 265 110 L265 411 Q265 440 250.5 461.5 Q236 483 198 483 Q181 483 166.5 473.5 Q152 464 140.5 448 Q129 432 122.5 410.5 Q116 389 116 366 L116 146 Q116 125 122.5 105 Q129 85 140.5 70 Q152 55 167 45.5 Q182 36 200 36 Z " />
<glyph glyph-name="c" unicode="c" horiz-adv-x="336" d="M174 -9 Q114 -9 82 26 Q50 61 50 127 L50 393 Q50 460 86 494 Q122 528 177 528 Q207 528 229 519 Q251 510 265.5 495 Q280 480 287 460.5 Q294 441 294 420 L294 364 L248 364 L248 416 Q248 428 244.5 440 Q241 452 233 462 Q225 472 211.5 478.5 Q198 485 177 485 Q156 485 141 477.5 Q126 470 117 458 Q108 446 104 430.5 Q100 415 100 399 L100 123 Q100 106 103.5 90 Q107 74 116 62 Q125 50 139.5 42.5 Q154 35 176 35 Q200 35 214 43 Q228 51 235.5 62 Q243 73 245.5 86 Q248 99 248 109 L248 157 L294 157 L294 104 Q294 54 264 22.5 Q234 -9 174 -9 Z " />
<glyph glyph-name="ccedilla" unicode="&#xe7;" horiz-adv-x="336" d="M180 -170 Q167 -170 149.5 -168 Q132 -166 115 -161 L115 -122 Q132 -126 146 -128 Q160 -130 177 -130 Q196 -130 207.5 -124 Q219 -118 219 -103 Q219 -89 206.5 -82.5 Q194 -76 170 -74 L146 -72 L162 -8 Q108 -5 79 29.5 Q50 64 50 127 L50 393 Q50 460 86 494 Q122 528 177 528 Q207 528 229 519 Q251 510 265.5 495 Q280 480 287 460.5 Q294 441 294 420 L294 364 L248 364 L248 416 Q248 428 244.5 440 Q241 452 233 462 Q225 472 211.5 478.5 Q198 485 177 485 Q156 485 141 477.5 Q126 470 117 458 Q108 446 104 430.5 Q100 415 100 399 L100 123 Q100 106 103.5 90 Q107 74 116 62 Q125 50 139.5 42.5 Q154 35 176 35 Q200 35 214 43 Q228 51 235.5 62 Q243 73 245.5 86 Q248 99 248 109 L248 157 L294 157 L294 104 Q294 59 268.5 28 Q243 -3 193 -8 L184 -45 Q199 -46 213.5 -49 Q228 -52 239.5 -58.5 Q251 -65 258 -76 Q265 -87 265 -103 Q265 -132 240.5 -151 Q216 -170 180 -170 Z " />
<glyph glyph-name="d" unicode="d" horiz-adv-x="366" d="M150 -8 Q124 -8 105 0.5 Q86 9 74 23.5 Q62 38 56 56.5 Q50 75 50 95 L50 414 Q50 441 58.5 462 Q67 483 82 498 Q97 513 117 520.5 Q137 528 159 528 Q186 528 211.5 514 Q237 500 250 471 L250 713 L300 713 L300 0 L259 0 L256 63 L253 63 Q244 42 231.5 28.5 Q219 15 205 6.5 Q191 -2 176.5 -5 Q162 -8 150 -8 Z M166 37 Q184 37 199.5 47 Q215 57 226.5 74 Q238 91 244 112.5 Q250 134 250 157 L250 372 Q250 393 243 413.5 Q236 434 224.5 449.5 Q213 465 198 474.5 Q183 484 166 484 Q136 484 118 466 Q100 448 100 406 L100 111 Q100 79 114.5 58 Q129 37 166 37 Z " />
<glyph glyph-name="eth" unicode="&#xf0;" horiz-adv-x="346" d="M65 620 L134 641 L92 713 L150 713 L183 656 L248 676 L261 643 L201 624 L285 479 Q294 464 299.5 442.5 Q305 421 305 397 L305 128 Q305 58 270.5 24.5 Q236 -9 176 -9 Q116 -9 83 25 Q50 59 50 125 L50 393 Q50 456 85.5 490 Q121 524 175 525 Q177 525 187 524 Q197 523 206 518 L152 609 L79 587 L65 620 Z M178 35 Q202 35 217 42.5 Q232 50 240.5 62 Q249 74 252 90 Q255 106 255 123 L255 397 Q255 414 251 429.5 Q247 445 238.5 456.5 Q230 468 216 475 Q202 482 181 482 Q139 482 119.5 456.5 Q100 431 100 396 L100 119 Q100 103 104.5 88 Q109 73 118 61 Q127 49 142 42 Q157 35 178 35 Z " />
<glyph glyph-name="e" unicode="e" horiz-adv-x="340" d="M185 -9 Q121 -9 85.5 25 Q50 59 50 133 L50 385 Q50 453 85 490.5 Q120 528 179 528 Q238 528 266.5 491 Q295 454 295 395 L295 249 L100 249 L100 142 Q100 90 119.5 63 Q139 36 192 36 Q217 36 238.5 43 Q260 50 276 58 L291 20 Q270 6 242 -1.5 Q214 -9 185 -9 Z M247 291 L247 398 Q247 413 243.5 428.5 Q240 444 232 456.5 Q224 469 209.5 476.5 Q195 484 174 484 Q154 484 140 476 Q126 468 117 455.5 Q108 443 104 427.5 Q100 412 100 396 L100 291 L247 291 Z " />
<glyph glyph-name="egrave" unicode="&#xe8;" horiz-adv-x="340" d="M185 -9 Q121 -9 85.5 25 Q50 59 50 133 L50 385 Q50 453 85 490.5 Q120 528 179 528 Q238 528 266.5 491 Q295 454 295 395 L295 249 L100 249 L100 142 Q100 90 119.5 63 Q139 36 192 36 Q217 36 238.5 43 Q260 50 276 58 L291 20 Q270 6 242 -1.5 Q214 -9 185 -9 Z M247 291 L247 398 Q247 413 243.5 428.5 Q240 444 232 456.5 Q224 469 209.5 476.5 Q195 484 174 484 Q154 484 140 476 Q126 468 117 455.5 Q108 443 104 427.5 Q100 412 100 396 L100 291 L247 291 Z M81 717 L141 717 L210 578 L168 578 L81 717 Z " />
<glyph glyph-name="eacute" unicode="&#xe9;" horiz-adv-x="340" d="M185 -9 Q121 -9 85.5 25 Q50 59 50 133 L50 385 Q50 453 85 490.5 Q120 528 179 528 Q238 528 266.5 491 Q295 454 295 395 L295 249 L100 249 L100 142 Q100 90 119.5 63 Q139 36 192 36 Q217 36 238.5 43 Q260 50 276 58 L291 20 Q270 6 242 -1.5 Q214 -9 185 -9 Z M247 291 L247 398 Q247 413 243.5 428.5 Q240 444 232 456.5 Q224 469 209.5 476.5 Q195 484 174 484 Q154 484 140 476 Q126 468 117 455.5 Q108 443 104 427.5 Q100 412 100 396 L100 291 L247 291 Z M222 717 L282 717 L195 578 L153 578 L222 717 Z " />
<glyph glyph-name="ecircumflex" unicode="&#xea;" horiz-adv-x="340" d="M185 -9 Q121 -9 85.5 25 Q50 59 50 133 L50 385 Q50 453 85 490.5 Q120 528 179 528 Q238 528 266.5 491 Q295 454 295 395 L295 249 L100 249 L100 142 Q100 90 119.5 63 Q139 36 192 36 Q217 36 238.5 43 Q260 50 276 58 L291 20 Q270 6 242 -1.5 Q214 -9 185 -9 Z M247 291 L247 398 Q247 413 243.5 428.5 Q240 444 232 456.5 Q224 469 209.5 476.5 Q195 484 174 484 Q154 484 140 476 Q126 468 117 455.5 Q108 443 104 427.5 Q100 412 100 396 L100 291 L247 291 Z M167 718 L207 718 L275 579 L228 579 L185 672 L142 579 L97 579 L167 718 Z " />
<glyph glyph-name="edieresis" unicode="&#xeb;" horiz-adv-x="340" d="M185 -9 Q121 -9 85.5 25 Q50 59 50 133 L50 385 Q50 453 85 490.5 Q120 528 179 528 Q238 528 266.5 491 Q295 454 295 395 L295 249 L100 249 L100 142 Q100 90 119.5 63 Q139 36 192 36 Q217 36 238.5 43 Q260 50 276 58 L291 20 Q270 6 242 -1.5 Q214 -9 185 -9 Z M247 291 L247 398 Q247 413 243.5 428.5 Q240 444 232 456.5 Q224 469 209.5 476.5 Q195 484 174 484 Q154 484 140 476 Q126 468 117 455.5 Q108 443 104 427.5 Q100 412 100 396 L100 291 L247 291 Z M102 713 L153 713 L153 615 L102 615 L102 713 Z M215 713 L266 713 L266 615 L215 615 L215 713 Z " />
<glyph glyph-name="f" unicode="f" horiz-adv-x="237" d="M90 476 L36 476 L36 517 L90 517 L90 627 Q90 667 113.5 692.5 Q137 718 179 718 Q188 718 198 717.5 Q208 717 219 713 L219 673 Q202 676 184 676 Q166 676 153 664 Q140 652 140 627 L140 517 L209 517 L209 476 L140 476 L140 0 L90 0 L90 476 Z " />
<glyph glyph-name="fi" unicode="&#xfb01;" horiz-adv-x="395" d="M90 477 L36 477 L36 518 L90 518 L90 627 Q90 667 113.5 692.5 Q137 718 179 718 Q188 718 198 717.5 Q208 717 219 713 L219 673 Q202 676 184 676 Q166 676 153 664 Q140 652 140 627 L140 518 L329 518 L329 0 L279 0 L279 477 L140 477 L140 0 L90 0 L90 477 Z M279 713 L329 713 L329 615 L279 615 L279 713 Z " />
<glyph glyph-name="fl" unicode="&#xfb02;" horiz-adv-x="413" d="M348 -5 Q312 -5 295 14 Q278 33 278 66 L278 713 L328 713 L328 76 Q328 61 336.5 51 Q345 41 364 41 Q377 41 391 44 L391 2 Q370 -5 348 -5 Z M90 476 L36 476 L36 517 L90 517 L90 627 Q90 667 113.5 692.5 Q137 718 179 718 Q188 718 198 717.5 Q208 717 219 713 L219 673 Q202 676 184 676 Q166 676 153 664 Q140 652 140 627 L140 517 L209 517 L209 476 L140 476 L140 0 L90 0 L90 476 Z " />
<glyph glyph-name="g" unicode="g" horiz-adv-x="365" d="M157 -170 Q97 -170 50 -147 L68 -105 Q92 -116 113.5 -121 Q135 -126 158 -126 Q249 -126 249 -28 L249 75 L247 75 Q233 41 205.5 24.5 Q178 8 152 8 Q126 8 106.5 17 Q87 26 74.5 42 Q62 58 56 78.5 Q50 99 50 122 L50 411 Q50 441 59 463 Q68 485 83 499.5 Q98 514 118 521 Q138 528 159 528 Q171 528 185.5 524.5 Q200 521 213 514 Q226 507 236.5 495 Q247 483 253 467 L254 519 L299 519 L299 -24 Q299 -97 260 -133.5 Q221 -170 157 -170 Z M166 53 Q182 53 197.5 62 Q213 71 224 86 Q235 101 242 121 Q249 141 249 163 L249 377 Q249 399 241.5 419 Q234 439 222 454 Q210 469 195 478 Q180 487 164 487 Q134 487 117 466 Q100 445 100 407 L100 129 Q100 115 103 101.5 Q106 88 113.5 77.5 Q121 67 133.5 60 Q146 53 166 53 Z " />
<glyph glyph-name="h" unicode="h" horiz-adv-x="372" d="M66 713 L116 713 L116 459 Q132 494 159.5 511 Q187 528 222 528 Q262 528 287 504 Q312 480 312 439 L312 0 L262 0 L262 415 Q262 450 246 467.5 Q230 485 201 485 Q182 485 166.5 474.5 Q151 464 139.5 447.5 Q128 431 122 410.5 Q116 390 116 370 L116 0 L66 0 L66 713 Z " />
<glyph glyph-name="i" unicode="i" horiz-adv-x="182" d="M66 518 L116 518 L116 0 L66 0 L66 518 Z M66 713 L116 713 L116 615 L66 615 L66 713 Z " />
<glyph glyph-name="igrave" unicode="&#xec;" horiz-adv-x="182" d="M66 518 L116 518 L116 0 L66 0 L66 518 Z M-18 717 L42 717 L111 578 L69 578 L-18 717 Z " />
<glyph glyph-name="iacute" unicode="&#xed;" horiz-adv-x="182" d="M66 518 L116 518 L116 0 L66 0 L66 518 Z M140 717 L200 717 L113 578 L71 578 L140 717 Z " />
<glyph glyph-name="icircumflex" unicode="&#xee;" horiz-adv-x="182" d="M66 518 L116 518 L116 0 L66 0 L66 518 Z M77 718 L117 718 L185 579 L138 579 L95 672 L52 579 L7 579 L77 718 Z " />
<glyph glyph-name="idieresis" unicode="&#xef;" horiz-adv-x="182" d="M66 518 L116 518 L116 0 L66 0 L66 518 Z M13 713 L64 713 L64 615 L13 615 L13 713 Z M126 713 L177 713 L177 615 L126 615 L126 713 Z " />
<glyph glyph-name="dotlessi" unicode="&#x131;" horiz-adv-x="182" d="M66 518 L116 518 L116 0 L66 0 L66 518 Z " />
<glyph glyph-name="j" unicode="j" horiz-adv-x="182" d="M35 -170 Q16 -170 0 -167 L0 -126 Q38 -126 52 -116.5 Q66 -107 66 -73 L66 518 L116 518 L116 -81 Q116 -119 96.5 -144.5 Q77 -170 35 -170 Z M66 713 L116 713 L116 615 L66 615 L66 713 Z " />
<glyph glyph-name="k" unicode="k" horiz-adv-x="333" d="M66 713 L116 713 L116 265 L253 518 L307 518 L205 339 L306 0 L254 0 L170 289 L116 195 L116 0 L66 0 L66 713 Z " />
<glyph glyph-name="l" unicode="l" horiz-adv-x="199" d="M134 -5 Q98 -5 81 14 Q64 33 64 66 L64 713 L114 713 L114 76 Q114 61 122.5 51 Q131 41 150 41 Q163 41 177 44 L177 2 Q156 -5 134 -5 Z " />
<glyph glyph-name="lslash" unicode="&#x142;" horiz-adv-x="199" d="M23 312 L64 373 L64 713 L114 713 L114 447 L164 522 L164 458 L114 383 L114 76 Q114 61 122.5 51 Q131 41 150 41 Q163 41 177 44 L177 2 Q156 -5 134 -5 Q98 -5 81 14 Q64 33 64 66 L64 309 L23 248 L23 312 Z " />
<glyph glyph-name="m" unicode="m" horiz-adv-x="569" d="M66 518 L112 518 L113 459 Q129 494 158.5 511 Q188 528 222 528 Q257 528 280 509.5 Q303 491 309 461 L310 461 Q327 495 356 511.5 Q385 528 419 528 Q458 528 483.5 504 Q509 480 509 439 L509 0 L459 0 L459 415 Q459 485 397 485 Q379 485 363.5 476 Q348 467 337 452.5 Q326 438 319.5 419.5 Q313 401 312 382 L312 0 L262 0 L262 417 Q260 485 201 485 Q182 485 166.5 475 Q151 465 139.5 449 Q128 433 122 412.5 Q116 392 116 372 L116 0 L66 0 L66 518 Z " />
<glyph glyph-name="n" unicode="n" horiz-adv-x="372" d="M66 518 L112 518 L113 459 Q129 493 158.5 510.5 Q188 528 222 528 Q262 528 287 504 Q312 480 312 439 L312 0 L262 0 L262 415 Q262 450 246 467.5 Q230 485 201 485 Q182 485 166.5 475 Q151 465 139.5 449 Q128 433 122 412.5 Q116 392 116 372 L116 0 L66 0 L66 518 Z " />
<glyph glyph-name="ntilde" unicode="&#xf1;" horiz-adv-x="372" d="M66 518 L112 518 L113 459 Q129 493 158.5 510.5 Q188 528 222 528 Q262 528 287 504 Q312 480 312 439 L312 0 L262 0 L262 415 Q262 450 246 467.5 Q230 485 201 485 Q182 485 166.5 475 Q151 465 139.5 449 Q128 433 122 412.5 Q116 392 116 372 L116 0 L66 0 L66 518 Z M79 594 Q83 625 99.5 647 Q116 669 145 669 Q158 669 171 664.5 Q184 660 197 655 Q210 650 223 645.5 Q236 641 249 641 Q263 641 269.5 650 Q276 659 281 676 L315 669 Q311 638 293.5 616.5 Q276 595 249 595 Q235 595 221 599.5 Q207 604 193.5 609.5 Q180 615 167.5 619.5 Q155 624 145 624 Q130 624 124 615 Q118 606 114 589 L79 594 Z " />
<glyph glyph-name="o" unicode="o" horiz-adv-x="356" d="M177 -9 Q116 -9 83 26.5 Q50 62 50 128 L50 393 Q50 459 87 493.5 Q124 528 179 528 Q236 528 271 495 Q306 462 306 398 L306 130 Q306 59 270 25 Q234 -9 177 -9 Z M179 35 Q202 35 217 43 Q232 51 240.5 63.5 Q249 76 252.5 92.5 Q256 109 256 126 L256 398 Q256 433 237.5 459 Q219 485 177 485 Q135 485 117.5 458.5 Q100 432 100 397 L100 126 Q100 109 104.5 92.5 Q109 76 118.5 63 Q128 50 143 42.5 Q158 35 179 35 Z " />
<glyph glyph-name="ograve" unicode="&#xf2;" horiz-adv-x="356" d="M177 -9 Q116 -9 83 26.5 Q50 62 50 128 L50 393 Q50 459 87 493.5 Q124 528 179 528 Q236 528 271 495 Q306 462 306 398 L306 130 Q306 59 270 25 Q234 -9 177 -9 Z M179 35 Q202 35 217 43 Q232 51 240.5 63.5 Q249 76 252.5 92.5 Q256 109 256 126 L256 398 Q256 433 237.5 459 Q219 485 177 485 Q135 485 117.5 458.5 Q100 432 100 397 L100 126 Q100 109 104.5 92.5 Q109 76 118.5 63 Q128 50 143 42.5 Q158 35 179 35 Z M72 717 L132 717 L201 578 L159 578 L72 717 Z " />
<glyph glyph-name="oacute" unicode="&#xf3;" horiz-adv-x="356" d="M177 -9 Q116 -9 83 26.5 Q50 62 50 128 L50 393 Q50 459 87 493.5 Q124 528 179 528 Q236 528 271 495 Q306 462 306 398 L306 130 Q306 59 270 25 Q234 -9 177 -9 Z M179 35 Q202 35 217 43 Q232 51 240.5 63.5 Q249 76 252.5 92.5 Q256 109 256 126 L256 398 Q256 433 237.5 459 Q219 485 177 485 Q135 485 117.5 458.5 Q100 432 100 397 L100 126 Q100 109 104.5 92.5 Q109 76 118.5 63 Q128 50 143 42.5 Q158 35 179 35 Z M225 717 L285 717 L198 578 L156 578 L225 717 Z " />
<glyph glyph-name="ocircumflex" unicode="&#xf4;" horiz-adv-x="356" d="M177 -9 Q116 -9 83 26.5 Q50 62 50 128 L50 393 Q50 459 87 493.5 Q124 528 179 528 Q236 528 271 495 Q306 462 306 398 L306 130 Q306 59 270 25 Q234 -9 177 -9 Z M179 35 Q202 35 217 43 Q232 51 240.5 63.5 Q249 76 252.5 92.5 Q256 109 256 126 L256 398 Q256 433 237.5 459 Q219 485 177 485 Q135 485 117.5 458.5 Q100 432 100 397 L100 126 Q100 109 104.5 92.5 Q109 76 118.5 63 Q128 50 143 42.5 Q158 35 179 35 Z M164 718 L204 718 L272 579 L225 579 L182 672 L139 579 L94 579 L164 718 Z " />
<glyph glyph-name="otilde" unicode="&#xf5;" horiz-adv-x="356" d="M177 -9 Q116 -9 83 26.5 Q50 62 50 128 L50 393 Q50 459 87 493.5 Q124 528 179 528 Q236 528 271 495 Q306 462 306 398 L306 130 Q306 59 270 25 Q234 -9 177 -9 Z M179 35 Q202 35 217 43 Q232 51 240.5 63.5 Q249 76 252.5 92.5 Q256 109 256 126 L256 398 Q256 433 237.5 459 Q219 485 177 485 Q135 485 117.5 458.5 Q100 432 100 397 L100 126 Q100 109 104.5 92.5 Q109 76 118.5 63 Q128 50 143 42.5 Q158 35 179 35 Z M65 594 Q69 625 85.5 647 Q102 669 131 669 Q144 669 157 664.5 Q170 660 183 655 Q196 650 209 645.5 Q222 641 235 641 Q249 641 255.5 650 Q262 659 267 676 L301 669 Q297 638 279.5 616.5 Q262 595 235 595 Q221 595 207 599.5 Q193 604 179.5 609.5 Q166 615 153.5 619.5 Q141 624 131 624 Q116 624 110 615 Q104 606 100 589 L65 594 Z " />
<glyph glyph-name="odieresis" unicode="&#xf6;" horiz-adv-x="356" d="M177 -9 Q116 -9 83 26.5 Q50 62 50 128 L50 393 Q50 459 87 493.5 Q124 528 179 528 Q236 528 271 495 Q306 462 306 398 L306 130 Q306 59 270 25 Q234 -9 177 -9 Z M179 35 Q202 35 217 43 Q232 51 240.5 63.5 Q249 76 252.5 92.5 Q256 109 256 126 L256 398 Q256 433 237.5 459 Q219 485 177 485 Q135 485 117.5 458.5 Q100 432 100 397 L100 126 Q100 109 104.5 92.5 Q109 76 118.5 63 Q128 50 143 42.5 Q158 35 179 35 Z M100 713 L151 713 L151 615 L100 615 L100 713 Z M213 713 L264 713 L264 615 L213 615 L213 713 Z " />
<glyph glyph-name="oslash" unicode="&#xf8;" horiz-adv-x="356" d="M63 -29 L82 27 Q50 64 50 128 L50 393 Q50 459 87 493.5 Q124 528 179 528 Q219 528 251 509 L267 554 L301 543 L280 484 Q306 452 306 398 L306 130 Q306 59 270 25 Q234 -9 177 -9 Q142 -9 113 4 L98 -40 L63 -29 Z M100 126 Q100 109 105 91 L235 462 Q214 485 177 485 Q135 485 117.5 458.5 Q100 432 100 397 L100 126 Z M179 35 Q202 35 217 43 Q232 51 240.5 63.5 Q249 76 252.5 92.5 Q256 109 256 126 L256 398 Q256 407 255 412 L129 51 Q148 35 179 35 Z " />
<glyph glyph-name="oe" unicode="&#x153;" horiz-adv-x="545" d="M177 -9 Q116 -9 83 26.5 Q50 62 50 128 L50 393 Q50 459 87 493.5 Q124 528 179 528 Q212 528 238.5 516 Q265 504 282 481 Q318 528 384 528 Q443 528 471.5 491 Q500 454 500 395 L500 249 L305 249 L305 142 Q305 90 324.5 63 Q344 36 397 36 Q422 36 443.5 43 Q465 50 481 58 L496 20 Q475 6 447 -1.5 Q419 -9 390 -9 Q313 -9 280 37 Q263 14 236 2.5 Q209 -9 177 -9 Z M179 35 Q202 35 216.5 43 Q231 51 239.5 63.5 Q248 76 251.5 92.5 Q255 109 255 126 L255 398 Q255 433 237 459 Q219 485 177 485 Q135 485 117.5 458.5 Q100 432 100 397 L100 126 Q100 109 104.5 92.5 Q109 76 118.5 63 Q128 50 143 42.5 Q158 35 179 35 Z M452 291 L452 398 Q452 413 448.5 428.5 Q445 444 437 456.5 Q429 469 414.5 476.5 Q400 484 379 484 Q359 484 345 476.5 Q331 469 322 456.5 Q313 444 309 428.5 Q305 413 305 398 L305 291 L452 291 Z " />
<glyph glyph-name="p" unicode="p" horiz-adv-x="365" d="M66 518 L112 518 L112 462 L114 462 Q121 480 133.5 492.5 Q146 505 159.5 513 Q173 521 187.5 524.5 Q202 528 214 528 Q240 528 259 519.5 Q278 511 290.5 496.5 Q303 482 309 463.5 Q315 445 315 425 L315 107 Q315 53 285 22 Q255 -9 207 -9 Q180 -9 154 5 Q128 19 116 48 L116 -162 L66 -162 L66 518 Z M201 37 Q231 37 248 55 Q265 73 265 112 L265 410 Q265 440 250.5 460.5 Q236 481 198 481 Q162 481 139 449 Q116 417 116 370 L116 139 Q116 96 139 66.5 Q162 37 201 37 Z " />
<glyph glyph-name="thorn" unicode="&#xfe;" horiz-adv-x="365" d="M66 713 L116 713 L116 462 L118 462 Q134 500 163 514 Q192 528 216 528 Q242 528 260.5 519.5 Q279 511 291 496.5 Q303 482 309 463.5 Q315 445 315 425 L315 105 Q315 51 283.5 21 Q252 -9 207 -9 Q180 -9 154 5 Q128 19 116 48 L116 -162 L66 -162 L66 713 Z M195 35 Q226 35 245.5 54.5 Q265 74 265 112 L265 410 Q265 440 248.5 462.5 Q232 485 195 485 Q161 485 138.5 456 Q116 427 116 380 L116 130 Q116 87 138.5 61 Q161 35 195 35 Z " />
<glyph glyph-name="q" unicode="q" horiz-adv-x="365" d="M249 50 L248 50 Q229 17 202.5 3.5 Q176 -10 151 -10 Q102 -10 76 21 Q50 52 50 97 L50 418 Q50 467 80.5 497.5 Q111 528 158 528 Q171 528 185.5 524.5 Q200 521 213 513.5 Q226 506 236.5 494 Q247 482 253 464 L255 464 L256 518 L299 518 L299 -162 L249 -162 L249 50 Z M168 34 Q184 34 198.5 43 Q213 52 224.5 67.5 Q236 83 242.5 103 Q249 123 249 145 L249 374 Q249 396 242 416.5 Q235 437 223.5 453 Q212 469 196.5 478 Q181 487 164 487 Q132 487 116 464.5 Q100 442 100 407 L100 113 Q100 80 116.5 57 Q133 34 168 34 Z " />
<glyph glyph-name="r" unicode="r" horiz-adv-x="250" d="M66 518 L115 518 L116 461 Q132 496 157 509 Q182 522 208 522 L218 522 Q224 522 229 520 L229 469 Q221 470 213 470.5 Q205 471 200 471 Q162 471 139.5 448.5 Q117 426 116 382 L116 0 L66 0 L66 518 Z " />
<glyph glyph-name="s" unicode="s" horiz-adv-x="304" d="M157 -8 Q100 -8 70 26.5 Q40 61 36 118 L86 118 Q91 78 107 56.5 Q123 35 158 35 Q187 35 204.5 52.5 Q222 70 222 106 Q222 122 216 138.5 Q210 155 200.5 170.5 Q191 186 180 200.5 Q169 215 159 227 L110 287 Q82 321 66 352 Q50 383 50 419 Q50 441 57 460.5 Q64 480 78 495 Q92 510 113 518.5 Q134 527 163 527 Q209 527 239 497.5 Q269 468 272 406 L224 404 Q219 449 204 467 Q189 485 160 485 Q130 485 114 467 Q98 449 98 423 Q98 401 108 378.5 Q118 356 143 327 L203 255 Q239 212 254.5 176 Q270 140 270 108 Q270 86 263 65.5 Q256 45 242 28.5 Q228 12 207 2 Q186 -8 157 -8 Z " />
<glyph glyph-name="scaron" unicode="&#x161;" horiz-adv-x="304" d="M157 -8 Q100 -8 70 26.5 Q40 61 36 118 L86 118 Q91 78 107 56.5 Q123 35 158 35 Q187 35 204.5 52.5 Q222 70 222 106 Q222 122 216 138.5 Q210 155 200.5 170.5 Q191 186 180 200.5 Q169 215 159 227 L110 287 Q82 321 66 352 Q50 383 50 419 Q50 441 57 460.5 Q64 480 78 495 Q92 510 113 518.5 Q134 527 163 527 Q209 527 239 497.5 Q269 468 272 406 L224 404 Q219 449 204 467 Q189 485 160 485 Q130 485 114 467 Q98 449 98 423 Q98 401 108 378.5 Q118 356 143 327 L203 255 Q239 212 254.5 176 Q270 140 270 108 Q270 86 263 65.5 Q256 45 242 28.5 Q228 12 207 2 Q186 -8 157 -8 Z M63 719 L110 719 L153 626 L196 719 L241 719 L171 579 L131 579 L63 719 Z " />
<glyph glyph-name="germandbls" unicode="&#xdf;" horiz-adv-x="396" d="M250 -5 Q224 -5 205 -0.5 Q186 4 174 11 L187 51 Q201 45 219 41 Q237 37 248 37 Q270 37 283 47.5 Q296 58 303 75 Q310 92 312.5 113.5 Q315 135 315 156 Q315 195 305 225.5 Q295 256 279 279 Q263 302 243.5 317 Q224 332 206 340 L206 377 L213 377 Q232 392 247.5 415.5 Q263 439 274 465 Q285 491 291 517 Q297 543 297 564 Q297 586 292 606.5 Q287 627 277.5 643 Q268 659 253.5 668 Q239 677 220 677 Q198 677 182.5 666.5 Q167 656 157.5 639.5 Q148 623 144 602.5 Q140 582 140 561 L140 0 L90 0 L90 476 L36 476 L36 517 L90 517 L90 558 Q90 633 125 676.5 Q160 720 223 720 Q253 720 276 708.5 Q299 697 315 677.5 Q331 658 339 631 Q347 604 347 573 Q347 516 324.5 460.5 Q302 405 257 368 L257 366 Q307 337 336 281 Q365 225 365 160 Q365 128 359 98.5 Q353 69 339.5 46 Q326 23 304 9 Q282 -5 250 -5 Z " />
<glyph glyph-name="t" unicode="t" horiz-adv-x="245" d="M158 -6 Q145 -6 132 -3 Q119 0 109 8 Q99 16 93 29 Q87 42 87 62 L87 473 L32 473 L32 517 L87 517 L87 635 L137 635 L137 517 L222 517 L222 473 L137 473 L137 76 Q137 55 144.5 46.5 Q152 38 168 38 Q179 38 191 40.5 Q203 43 212 46 L212 5 Q198 0 185 -3 Q172 -6 158 -6 Z " />
<glyph glyph-name="u" unicode="u" horiz-adv-x="372" d="M149 -10 Q110 -10 85 14 Q60 38 60 80 L60 518 L110 518 L110 101 Q110 34 171 34 Q190 34 205.5 44 Q221 54 232 70 Q243 86 249.5 106.5 Q256 127 256 147 L256 518 L306 518 L306 0 L260 0 L259 60 Q242 25 212.5 7.5 Q183 -10 149 -10 Z " />
<glyph glyph-name="ugrave" unicode="&#xf9;" horiz-adv-x="372" d="M149 -10 Q110 -10 85 14 Q60 38 60 80 L60 518 L110 518 L110 101 Q110 34 171 34 Q190 34 205.5 44 Q221 54 232 70 Q243 86 249.5 106.5 Q256 127 256 147 L256 518 L306 518 L306 0 L260 0 L259 60 Q242 25 212.5 7.5 Q183 -10 149 -10 Z M82 717 L142 717 L211 578 L169 578 L82 717 Z " />
<glyph glyph-name="uacute" unicode="&#xfa;" horiz-adv-x="372" d="M149 -10 Q110 -10 85 14 Q60 38 60 80 L60 518 L110 518 L110 101 Q110 34 171 34 Q190 34 205.5 44 Q221 54 232 70 Q243 86 249.5 106.5 Q256 127 256 147 L256 518 L306 518 L306 0 L260 0 L259 60 Q242 25 212.5 7.5 Q183 -10 149 -10 Z M233 717 L293 717 L206 578 L164 578 L233 717 Z " />
<glyph glyph-name="ucircumflex" unicode="&#xfb;" horiz-adv-x="372" d="M149 -10 Q110 -10 85 14 Q60 38 60 80 L60 518 L110 518 L110 101 Q110 34 171 34 Q190 34 205.5 44 Q221 54 232 70 Q243 86 249.5 106.5 Q256 127 256 147 L256 518 L306 518 L306 0 L260 0 L259 60 Q242 25 212.5 7.5 Q183 -10 149 -10 Z M173 718 L213 718 L281 579 L234 579 L191 672 L148 579 L103 579 L173 718 Z " />
<glyph glyph-name="udieresis" unicode="&#xfc;" horiz-adv-x="372" d="M149 -10 Q110 -10 85 14 Q60 38 60 80 L60 518 L110 518 L110 101 Q110 34 171 34 Q190 34 205.5 44 Q221 54 232 70 Q243 86 249.5 106.5 Q256 127 256 147 L256 518 L306 518 L306 0 L260 0 L259 60 Q242 25 212.5 7.5 Q183 -10 149 -10 Z M104 713 L155 713 L155 615 L104 615 L104 713 Z M217 713 L268 713 L268 615 L217 615 L217 713 Z " />
<glyph glyph-name="v" unicode="v" horiz-adv-x="309" d="M22 518 L74 518 L155 93 L157 93 L239 518 L287 518 L180 -2 L128 -2 L22 518 Z " />
<glyph glyph-name="w" unicode="w" horiz-adv-x="474" d="M25 518 L78 518 L138 112 L141 112 L213 518 L267 518 L340 112 L343 112 L402 518 L449 518 L364 -1 L316 -1 L240 427 L237 427 L159 -1 L111 -1 L25 518 Z " />
<glyph glyph-name="x" unicode="x" horiz-adv-x="308" d="M126 265 L25 518 L79 518 L157 310 L235 518 L281 518 L183 268 L290 0 L237 0 L152 219 L66 0 L18 0 L126 265 Z " />
<glyph glyph-name="y" unicode="y" horiz-adv-x="310" d="M69 -170 Q59 -170 47.5 -169 Q36 -168 22 -164 L29 -121 Q39 -123 47.5 -124.5 Q56 -126 66 -126 Q81 -126 95.5 -116.5 Q110 -107 118 -74 L138 14 L23 518 L74 518 L161 119 L163 119 L241 518 L288 518 L167 -44 Q153 -107 132 -138.5 Q111 -170 69 -170 Z " />
<glyph glyph-name="yacute" unicode="&#xfd;" horiz-adv-x="310" d="M69 -170 Q59 -170 47.5 -169 Q36 -168 22 -164 L29 -121 Q39 -123 47.5 -124.5 Q56 -126 66 -126 Q81 -126 95.5 -116.5 Q110 -107 118 -74 L138 14 L23 518 L74 518 L161 119 L163 119 L241 518 L288 518 L167 -44 Q153 -107 132 -138.5 Q111 -170 69 -170 Z M216 717 L276 717 L189 578 L147 578 L216 717 Z " />
<glyph glyph-name="ydieresis" unicode="&#xff;" horiz-adv-x="310" d="M69 -170 Q59 -170 47.5 -169 Q36 -168 22 -164 L29 -121 Q39 -123 47.5 -124.5 Q56 -126 66 -126 Q81 -126 95.5 -116.5 Q110 -107 118 -74 L138 14 L23 518 L74 518 L161 119 L163 119 L241 518 L288 518 L167 -44 Q153 -107 132 -138.5 Q111 -170 69 -170 Z M79 713 L130 713 L130 615 L79 615 L79 713 Z M192 713 L243 713 L243 615 L192 615 L192 713 Z " />
<glyph glyph-name="z" unicode="z" horiz-adv-x="277" d="M31 34 L194 476 L35 476 L35 518 L248 518 L248 478 L88 42 L250 42 L250 0 L31 0 L31 34 Z " />
<glyph glyph-name="zcaron" unicode="&#x17e;" horiz-adv-x="277" d="M31 34 L194 476 L35 476 L35 518 L248 518 L248 478 L88 42 L250 42 L250 0 L31 0 L31 34 Z M50 719 L97 719 L140 626 L183 719 L228 719 L158 579 L118 579 L50 719 Z " />
<glyph glyph-name="grave" unicode="&#x60;" horiz-adv-x="356" d="M113 717 L173 717 L242 578 L200 578 L113 717 Z " />
<glyph glyph-name="acute" unicode="&#xb4;" horiz-adv-x="356" d="M182 717 L242 717 L155 578 L113 578 L182 717 Z " />
<glyph glyph-name="circumflex" unicode="&#x2c6;" horiz-adv-x="356" d="M159 718 L199 718 L267 579 L220 579 L177 672 L134 579 L89 579 L159 718 Z " />
<glyph glyph-name="dieresis" unicode="&#xa8;" horiz-adv-x="356" d="M96 713 L147 713 L147 615 L96 615 L96 713 Z M209 713 L260 713 L260 615 L209 615 L209 713 Z " />
<glyph glyph-name="macron" unicode="&#xaf;" horiz-adv-x="356" d="M90 643 L266 643 L266 597 L90 597 L90 643 Z " />
<glyph glyph-name="cedilla" unicode="&#xb8;" horiz-adv-x="356" d="M169 -170 Q156 -170 138.5 -168 Q121 -166 104 -161 L104 -122 Q121 -126 135 -128 Q149 -130 166 -130 Q185 -130 196.5 -124 Q208 -118 208 -103 Q208 -89 195.5 -82.5 Q183 -76 159 -74 L135 -72 L155 10 L187 10 L173 -45 Q188 -46 202.5 -49 Q217 -52 228.5 -58.5 Q240 -65 247 -76 Q254 -87 254 -103 Q254 -132 229.5 -151 Q205 -170 169 -170 Z " />
<glyph glyph-name="caron" unicode="&#x2c7;" horiz-adv-x="356" d="M89 719 L136 719 L179 626 L222 719 L267 719 L197 579 L157 579 L89 719 Z " />
<glyph glyph-name="breve" unicode="&#x2d8;" horiz-adv-x="356" d="M178 583 Q127 583 100 615 Q73 647 72 705 L114 705 Q115 690 118.5 675.5 Q122 661 129.5 649 Q137 637 149 630 Q161 623 181 623 Q214 623 228.5 646.5 Q243 670 243 705 L284 705 Q282 643 251.5 613 Q221 583 178 583 Z " />
<glyph glyph-name="dotaccent" unicode="&#x2d9;" horiz-adv-x="356" d="M152 713 L202 713 L202 615 L152 615 L152 713 Z " />
<glyph glyph-name="ring" unicode="&#x2da;" horiz-adv-x="356" d="M178 576 Q140 576 121.5 598.5 Q103 621 103 650 Q103 682 123.5 705.5 Q144 729 178 729 Q215 729 234 707.5 Q253 686 253 655 Q253 621 232 598.5 Q211 576 178 576 Z M178 605 Q198 605 209.5 617.5 Q221 630 221 652 Q221 672 210.5 686 Q200 700 177 700 Q157 700 147 686.5 Q137 673 137 651 Q137 628 148.5 616.5 Q160 605 178 605 Z " />
<glyph glyph-name="ogonek" unicode="&#x2db;" horiz-adv-x="356" d="M185 -170 Q154 -170 131 -152 Q108 -134 108 -96 Q108 -74 116 -56.5 Q124 -39 136.5 -25 Q149 -11 163.5 -0.5 Q178 10 191 18 L216 0 Q186 -15 168.5 -36 Q151 -57 151 -83 Q151 -106 163 -116 Q175 -126 194 -126 Q205 -126 214 -123.5 Q223 -121 231 -117 L247 -153 Q237 -159 222.5 -164.5 Q208 -170 185 -170 Z " />
<glyph glyph-name="tilde" unicode="&#x2dc;" horiz-adv-x="356" d="M60 594 Q64 625 80.5 647 Q97 669 126 669 Q139 669 152 664.5 Q165 660 178 655 Q191 650 204 645.5 Q217 641 230 641 Q244 641 250.5 650 Q257 659 262 676 L296 669 Q292 638 274.5 616.5 Q257 595 230 595 Q216 595 202 599.5 Q188 604 174.5 609.5 Q161 615 148.5 619.5 Q136 624 126 624 Q111 624 105 615 Q99 606 95 589 L60 594 Z " />
<glyph glyph-name="hungarumlaut" unicode="&#x2dd;" horiz-adv-x="356" d="M131 717 L191 717 L104 578 L62 578 L131 717 Z M234 717 L294 717 L207 578 L165 578 L234 717 Z " />
<glyph glyph-name="endash" unicode="&#x2013;" horiz-adv-x="358" d="M0 320 L358 320 L358 278 L0 278 L0 320 Z " />
<glyph glyph-name="emdash" unicode="&#x2014;" horiz-adv-x="600" d="M0 320 L600 320 L600 278 L0 278 L0 320 Z " />
<glyph glyph-name="guilsinglleft" unicode="&#x2039;" horiz-adv-x="191" d="M29 276 L114 412 L148 391 L87 277 L151 162 L117 142 L29 276 Z " />
<glyph glyph-name="guilsinglright" unicode="&#x203a;" horiz-adv-x="191" d="M31 163 L92 277 L29 391 L63 412 L151 278 L65 142 L31 163 Z " />
<glyph glyph-name="guillemotleft" unicode="&#xab;" horiz-adv-x="314" d="M22 276 L108 412 L141 391 L80 277 L144 162 L110 142 L22 276 Z M148 276 L234 411 L267 390 L206 277 L270 163 L235 142 L148 276 Z " />
<glyph glyph-name="guillemotright" unicode="&#xbb;" horiz-adv-x="314" d="M24 163 L85 277 L22 391 L56 411 L144 278 L58 143 L24 163 Z M150 163 L211 277 L147 391 L182 412 L270 278 L184 142 L150 163 Z " />
<glyph glyph-name="parenleft" unicode="&#x28;" horiz-adv-x="177" d="M134 -172 Q111 -126 94.5 -69 Q78 -12 67 48 Q56 108 50.5 167 Q45 226 45 277 Q45 331 50.5 389.5 Q56 448 67 506 Q78 564 94.5 619 Q111 674 134 722 L167 719 Q150 660 136 610.5 Q122 561 112.5 510.5 Q103 460 98 404 Q93 348 93 276 Q93 157 113 47.5 Q133 -62 167 -168 L134 -172 Z " />
<glyph glyph-name="parenright" unicode="&#x29;" horiz-adv-x="177" d="M9 -168 Q44 -62 63.5 47.5 Q83 157 83 276 Q83 348 78 404 Q73 460 63.5 510.5 Q54 561 40.5 610.5 Q27 660 10 719 L42 722 Q65 674 82 619 Q99 564 110 506 Q121 448 126.5 389.5 Q132 331 132 277 Q132 226 126.5 167 Q121 108 110 48 Q99 -12 82 -69 Q65 -126 42 -172 L9 -168 Z " />
<glyph glyph-name="bracketleft" unicode="&#x5b;" horiz-adv-x="195" d="M52 713 L178 713 L178 676 L100 676 L100 -125 L178 -125 L178 -162 L52 -162 L52 713 Z " />
<glyph glyph-name="bracketright" unicode="&#x5d;" horiz-adv-x="195" d="M17 -124 L95 -124 L95 676 L17 676 L17 713 L144 713 L144 -162 L17 -162 L17 -124 Z " />
<glyph glyph-name="at" unicode="&#x40;" horiz-adv-x="668" d="M348 -78 Q279 -78 222.5 -55.5 Q166 -33 125.5 10.5 Q85 54 63 118 Q41 182 41 264 Q41 352 63 426.5 Q85 501 127 555 Q169 609 229 639.5 Q289 670 364 670 Q417 670 465 652 Q513 634 549.5 596.5 Q586 559 607.5 501.5 Q629 444 629 366 Q629 295 610.5 240.5 Q592 186 562 148.5 Q532 111 493.5 90.5 Q455 70 415 67 L375 67 L384 130 L382 130 Q358 88 327 73.5 Q296 59 272 59 Q229 59 208.5 82 Q188 105 188 139 Q188 144 189.5 155 Q191 166 192.5 179 Q194 192 196 206 Q198 220 200 231 L229 419 Q233 446 245 467 Q257 488 273.5 502 Q290 516 310.5 523.5 Q331 531 352 531 Q379 531 402 518 Q425 505 432 476 L443 528 L490 528 L424 104 Q461 105 491.5 127 Q522 149 544 185 Q566 221 578.5 267 Q591 313 591 363 Q591 433 573 485 Q555 537 524 571 Q493 605 451.5 621.5 Q410 638 362 638 Q294 638 241.5 609.5 Q189 581 153 531 Q117 481 98 414 Q79 347 79 271 Q79 198 96.5 139.5 Q114 81 148.5 40 Q183 -1 234 -23 Q285 -45 353 -45 Q394 -45 430 -39.5 Q466 -34 503 -23 L508 -52 Q473 -65 432.5 -71.5 Q392 -78 348 -78 Z M295 100 Q312 100 328.5 108.5 Q345 117 358.5 132 Q372 147 381.5 166.5 Q391 186 395 209 L419 368 Q423 394 424 402 Q425 410 425 414 Q425 452 406 471.5 Q387 491 358 491 Q324 491 302 469 Q280 447 274 408 L243 196 Q240 176 239 167 Q238 158 238 153 Q238 130 250.5 115 Q263 100 295 100 Z " />
<glyph glyph-name="bar" unicode="&#x7c;" horiz-adv-x="225" d="M93 714 L132 714 L132 -104 L93 -104 L93 714 Z " />
<glyph glyph-name="backslash" unicode="&#x5c;" horiz-adv-x="230" d="M14 716 L56 716 L231 -169 L187 -169 L14 716 Z " />
<glyph glyph-name="slash" unicode="&#x2f;" horiz-adv-x="230" d="M168 716 L210 716 L39 -169 L-6 -169 L168 716 Z " />
<glyph glyph-name="underscore" unicode="&#x5f;" horiz-adv-x="370" d="M0 -60 L370 -60 L370 -104 L0 -104 L0 -60 Z " />
<glyph glyph-name="numbersign" unicode="&#x23;" horiz-adv-x="398" d="M92 199 L27 199 L30 239 L96 239 L124 486 L55 486 L59 525 L126 525 L149 713 L187 713 L166 525 L270 525 L290 713 L329 713 L309 525 L375 525 L372 486 L306 486 L279 239 L344 239 L344 199 L276 199 L256 0 L215 0 L236 199 L133 199 L113 0 L73 0 L92 199 Z M240 239 L267 486 L164 486 L137 239 L240 239 Z " />
<glyph glyph-name="dollar" unicode="&#x24;" horiz-adv-x="349" d="M157 7 Q102 13 67.5 52.5 Q33 92 28 163 L77 165 Q82 111 105 79.5 Q128 48 177 48 Q201 48 218 57.5 Q235 67 245.5 82.5 Q256 98 261 117.5 Q266 137 266 157 Q266 191 250 228.5 Q234 266 207 298 L117 401 Q85 437 63.5 477.5 Q42 518 42 559 Q42 613 71.5 651.5 Q101 690 157 696 L157 789 L200 789 L200 697 Q246 692 275.5 660 Q305 628 310 557 L266 556 Q262 613 236 635 Q210 657 175 657 Q137 657 113.5 634.5 Q90 612 90 563 Q90 528 111 496 Q132 464 161 431 L240 341 Q277 298 295 256 Q313 214 313 163 Q313 98 284 57 Q255 16 200 8 L200 -85 L157 -85 L157 7 Z " />
<glyph glyph-name="cent" unicode="&#xa2;" horiz-adv-x="331" d="M149 9 Q97 14 70.5 48 Q44 82 44 142 L44 412 Q44 472 72.5 505 Q101 538 149 543 L149 638 L194 638 L194 543 Q243 536 266 505 Q289 474 289 433 L289 377 L242 377 L242 434 Q242 445 239 457 Q236 469 227.5 479 Q219 489 205.5 495.5 Q192 502 171 502 Q149 502 134.5 495 Q120 488 111.5 476 Q103 464 99.5 448.5 Q96 433 96 417 L96 139 Q96 122 99.5 105.5 Q103 89 111.5 76.5 Q120 64 134.5 56.5 Q149 49 171 49 Q195 49 209 57 Q223 65 230.5 76 Q238 87 240 100 Q242 113 242 124 L242 184 L289 184 L289 119 Q289 75 265.5 45 Q242 15 194 10 L194 -83 L149 -83 L149 9 Z " />
<glyph glyph-name="sterling" unicode="&#xa3;" horiz-adv-x="386" d="M38 45 L90 45 L90 340 L43 340 L43 386 L90 386 L90 590 Q90 625 101 650.5 Q112 676 131 692 Q150 708 175 715.5 Q200 723 227 723 Q285 723 316.5 692 Q348 661 348 612 L348 546 L300 546 L300 607 Q300 645 278.5 662.5 Q257 680 223 680 Q209 680 195 676.5 Q181 673 169.5 663 Q158 653 150.5 636 Q143 619 143 592 L143 386 L271 386 L271 340 L143 340 L143 45 L353 45 L343 0 L38 0 L38 45 Z " />
<glyph glyph-name="yen" unicode="&#xa5;" horiz-adv-x="341" d="M145 277 L40 277 L40 323 L142 323 L15 713 L70 713 L174 386 L275 713 L326 713 L202 323 L302 323 L302 277 L197 277 L197 0 L145 0 L145 277 Z " />
<glyph glyph-name="Euro" unicode="&#x20ac;" horiz-adv-x="423" d="M241 -9 Q169 -9 127.5 29 Q86 67 86 136 L86 274 L33 274 L33 319 L86 319 L86 400 L33 400 L33 445 L86 445 L86 571 Q86 604 96.5 632 Q107 660 126.5 680.5 Q146 701 175 712.5 Q204 724 241 724 Q277 724 304.5 713 Q332 702 350 684 Q368 666 377.5 642 Q387 618 387 591 L387 492 L340 492 L340 584 Q340 627 315.5 653 Q291 679 239 679 Q211 679 192 670 Q173 661 161 646 Q149 631 144 610.5 Q139 590 139 568 L139 445 L292 445 L292 400 L139 400 L139 319 L292 319 L292 274 L139 274 L139 147 Q139 96 164.5 66 Q190 36 241 36 Q294 36 317 65.5 Q340 95 340 135 L340 219 L387 219 L387 131 Q387 69 348.5 30 Q310 -9 241 -9 Z " />
<glyph glyph-name="paragraph" unicode="&#xb6;" horiz-adv-x="421" d="M177 255 Q142 262 117 281.5 Q92 301 76 329.5 Q60 358 52 394.5 Q44 431 44 473 Q44 524 53.5 568 Q63 612 83 644 Q103 676 134 694.5 Q165 713 207 713 L388 713 L388 675 L334 675 L334 -116 L297 -116 L297 675 L214 675 L214 -116 L177 -116 L177 255 Z " />
<glyph glyph-name="bullet" unicode="&#x2022;" horiz-adv-x="345" d="M173 212 Q150 212 129.5 221 Q109 230 94 245 Q79 260 70 280 Q61 300 61 323 Q61 346 70 366 Q79 386 94 401 Q109 416 129.5 425 Q150 434 173 434 Q195 434 215 425 Q235 416 250 401 Q265 386 274 366 Q283 346 283 323 Q283 300 274.5 280 Q266 260 251 245 Q236 230 216 221 Q196 212 173 212 Z " />
<glyph glyph-name="periodcentered" unicode="&#xb7;" horiz-adv-x="154" d="M51 408 L104 408 L104 308 L51 308 L51 408 Z " />
<glyph glyph-name="plus" unicode="&#x2b;" horiz-adv-x="420" d="M191 298 L66 298 L66 341 L191 341 L191 475 L230 475 L230 341 L354 341 L354 298 L231 298 L231 164 L191 164 L191 298 Z " />
<glyph glyph-name="equal" unicode="&#x3d;" horiz-adv-x="420" d="M66 275 L354 275 L354 230 L66 230 L66 275 Z M66 400 L354 400 L354 355 L66 355 L66 400 Z " />
<glyph glyph-name="less" unicode="&#x3c;" horiz-adv-x="420" d="M76 302 L76 337 L325 461 L345 422 L136 320 L344 214 L323 176 L76 302 Z " />
<glyph glyph-name="greater" unicode="&#x3e;" horiz-adv-x="420" d="M77 215 L284 320 L75 423 L96 461 L345 338 L345 302 L97 176 L77 215 Z " />
<glyph glyph-name="percent" unicode="&#x25;" horiz-adv-x="531" d="M132 374 Q89 374 64.5 399.5 Q40 425 40 472 L40 623 Q40 671 65.5 696.5 Q91 722 132 722 Q174 722 200 697 Q226 672 226 623 L226 470 Q226 423 199.5 398.5 Q173 374 132 374 Z M132 411 Q161 411 173 429.5 Q185 448 185 468 L185 628 Q185 648 172.5 666.5 Q160 685 132 685 Q103 685 91.5 666.5 Q80 648 80 628 L80 468 Q80 445 91.5 428 Q103 411 132 411 Z M384 716 L423 716 L153 -3 L111 -3 L384 716 Z M396 -10 Q354 -10 329 14.5 Q304 39 304 86 L304 233 Q304 281 329.5 310 Q355 339 397 339 Q438 339 464.5 313 Q491 287 491 239 L491 86 Q491 40 464 15 Q437 -10 396 -10 Z M396 27 Q425 27 437 45.5 Q449 64 449 84 L449 245 Q449 264 437 282.5 Q425 301 396 301 Q368 301 356.5 283 Q345 265 345 245 L345 84 Q345 61 356.5 44 Q368 27 396 27 Z " />
<glyph glyph-name="braceleft" unicode="&#x7b;" horiz-adv-x="205" d="M115 -162 Q89 -162 74.5 -148.5 Q60 -135 60 -107 L60 232 Q60 252 53.5 263.5 Q47 275 28 277 L28 317 Q48 320 54 331 Q60 342 60 359 L60 652 Q60 680 75 696.5 Q90 713 116 713 L187 713 L187 677 L124 677 Q116 677 112 672 Q108 667 108 653 L108 364 Q108 342 100 325 Q92 308 72 300 L72 297 Q92 289 100 272.5 Q108 256 108 233 L108 -102 Q108 -116 112 -121 Q116 -126 124 -126 L187 -126 L187 -162 L115 -162 Z " />
<glyph glyph-name="braceright" unicode="&#x7d;" horiz-adv-x="205" d="M14 -126 L77 -126 Q85 -126 89.5 -121 Q94 -116 94 -102 L94 233 Q94 256 102 272.5 Q110 289 130 297 L130 300 Q110 308 102 325 Q94 342 94 364 L94 654 Q94 668 89.5 673 Q85 678 77 678 L14 678 L14 714 L86 714 Q112 714 126.5 697.5 Q141 681 141 653 L141 359 Q141 342 147 331 Q153 320 173 317 L173 277 Q154 275 147.5 263.5 Q141 252 141 232 L141 -107 Q141 -162 86 -162 L14 -162 L14 -126 Z " />
<glyph glyph-name="brokenbar" unicode="&#xa6;" horiz-adv-x="225" d="M93 275 L132 275 L132 -104 L93 -104 L93 275 Z M93 714 L132 714 L132 351 L93 351 L93 714 Z " />
<glyph glyph-name="fraction" unicode="&#x2044;" horiz-adv-x="89" d="M162 716 L199 716 L-75 -2 L-113 -2 L162 716 Z " />
<glyph glyph-name="section" unicode="&#xa7;" horiz-adv-x="391" d="M193 -129 Q166 -129 138 -121.5 Q110 -114 87.5 -96.5 Q65 -79 50.5 -51 Q36 -23 36 18 L36 52 L86 52 L86 27 Q86 -27 116.5 -56 Q147 -85 197 -85 Q249 -85 274.5 -53.5 Q300 -22 300 21 Q300 45 293 63 Q286 81 274.5 94 Q263 107 248 116 Q233 125 217 133 Q201 141 188 146.5 Q175 152 161 157 Q138 166 117 178.5 Q96 191 79.5 208.5 Q63 226 53 249 Q43 272 43 302 Q43 340 64 376 Q85 412 123 438 Q80 464 62.5 496.5 Q45 529 45 573 Q45 602 54 628.5 Q63 655 82 674.5 Q101 694 129 705.5 Q157 717 195 717 Q264 717 302 679 Q340 641 340 577 L340 543 L293 543 L293 573 Q293 619 267.5 646 Q242 673 194 673 Q151 673 123.5 648.5 Q96 624 96 576 Q96 536 118.5 509 Q141 482 168 469 L240 434 Q259 425 278 412 Q297 399 312.5 382 Q328 365 338 343 Q348 321 348 294 Q348 253 328.5 218 Q309 183 270 158 Q311 139 332.5 104 Q354 69 354 27 Q354 -42 311 -85.5 Q268 -129 193 -129 Z M226 183 Q256 197 276 224 Q296 251 296 291 Q296 352 213 390 L191 400 Q180 405 164 413 Q140 400 117.5 372 Q95 344 95 304 Q95 284 101.5 269 Q108 254 117.5 243 Q127 232 137.5 225 Q148 218 156 214 Q179 204 194.5 197 Q210 190 226 183 Z " />
<glyph glyph-name="copyright" unicode="&#xa9;" horiz-adv-x="680" d="M340 81 Q278 81 245.5 115.5 Q213 150 213 212 L213 481 Q213 543 246.5 579 Q280 615 341 615 Q401 615 431 583 Q461 551 461 503 L461 419 L413 419 L413 500 Q413 512 409.5 523.5 Q406 535 397.5 545 Q389 555 375.5 561 Q362 567 342 567 Q320 567 305.5 559.5 Q291 552 282 539.5 Q273 527 269.5 511 Q266 495 266 478 L266 217 Q266 179 282.5 154.5 Q299 130 341 130 Q362 130 376 136.5 Q390 143 398.5 153.5 Q407 164 410 176 Q413 188 413 199 L413 277 L461 277 L461 198 Q461 148 430.5 114.5 Q400 81 340 81 Z M340 -26 Q264 -26 208 3 Q152 32 115.5 82.5 Q79 133 61.5 202 Q44 271 44 351 Q44 427 63.5 495 Q83 563 120.5 614 Q158 665 213 694.5 Q268 724 340 724 Q415 724 470.5 693.5 Q526 663 562.5 611 Q599 559 617.5 491.5 Q636 424 636 351 Q636 274 617.5 205.5 Q599 137 562.5 85.5 Q526 34 470.5 4 Q415 -26 340 -26 Z M342 9 Q399 9 446 33 Q493 57 526.5 102 Q560 147 578 210 Q596 273 596 351 Q596 430 577.5 493.5 Q559 557 525.5 600.5 Q492 644 444.5 667.5 Q397 691 340 691 Q282 691 235 667 Q188 643 154.5 599 Q121 555 103 492 Q85 429 85 351 Q85 270 103 206.5 Q121 143 155 99 Q189 55 236 32 Q283 9 342 9 Z " />
<glyph glyph-name="registered" unicode="&#xae;" horiz-adv-x="387" d="M196 299 Q157 299 127 316 Q97 333 76.5 361.5 Q56 390 45.5 428.5 Q35 467 35 511 Q35 557 46 596 Q57 635 78 663.5 Q99 692 129.5 708 Q160 724 199 724 Q235 724 265 708 Q295 692 316.5 664 Q338 636 349.5 596.5 Q361 557 361 511 Q361 468 350 429.5 Q339 391 318 362 Q297 333 266.5 316 Q236 299 196 299 Z M196 328 Q252 328 289.5 376 Q327 424 327 511 Q327 554 316.5 588.5 Q306 623 288 647 Q270 671 246.5 683.5 Q223 696 196 696 Q170 696 146.5 683.5 Q123 671 105.5 647 Q88 623 77.5 588.5 Q67 554 67 511 Q67 467 77.5 433 Q88 399 105.5 375.5 Q123 352 146.5 340 Q170 328 196 328 Z M137 653 L197 653 Q231 653 248 632 Q265 611 265 573 Q265 545 254.5 525.5 Q244 506 227 499 L272 374 L235 374 L194 492 L171 492 L171 374 L137 374 L137 653 Z M195 521 Q230 521 230 570 Q230 590 222 606 Q214 622 194 622 L171 622 L171 521 L195 521 Z " />
<glyph glyph-name="trademark" unicode="&#x2122;" horiz-adv-x="441" d="M213 713 L256 713 L307 570 L357 713 L399 713 L399 391 L365 391 L365 641 L320 513 L293 513 L247 642 L247 391 L213 391 L213 713 Z M84 681 L24 681 L24 713 L180 713 L180 681 L120 681 L120 391 L84 391 L84 681 Z " />
<glyph glyph-name="Omega" unicode="&#x2126;" horiz-adv-x="433" d="M43 52 L138 49 L138 54 Q92 117 69.5 195.5 Q47 274 47 363 L47 520 Q47 617 91 670.5 Q135 724 217 724 Q261 724 292.5 708.5 Q324 693 344.5 665.5 Q365 638 375 601 Q385 564 385 522 L385 364 Q385 316 376.5 269 Q368 222 355.5 180.5 Q343 139 327 106.5 Q311 74 296 54 L296 49 L390 52 L390 0 L242 0 L242 33 Q258 61 273.5 95.5 Q289 130 301 171 Q313 212 320 260.5 Q327 309 327 366 L327 531 Q327 561 320.5 587.5 Q314 614 300 633 Q286 652 265 663 Q244 674 215 674 Q163 674 133.5 636 Q104 598 104 530 L104 368 Q104 300 112 249 Q120 198 132.5 158.5 Q145 119 160.5 89 Q176 59 192 33 L192 0 L43 0 L43 52 Z " />
<glyph glyph-name="Delta" unicode="&#x2206;" horiz-adv-x="414" d="M30 29 L179 715 L252 715 L400 29 L400 0 L30 0 L30 29 Z M338 47 L214 649 L211 649 L87 47 L338 47 Z " />
<glyph glyph-name="mu" unicode="&#xb5;" horiz-adv-x="370" d="M54 517 L107 517 L107 105 Q107 69 126.5 52.5 Q146 36 175 36 Q191 36 206 42.5 Q221 49 233 62 Q245 75 252.5 94.5 Q260 114 260 140 L260 517 L313 517 L313 112 Q313 91 318.5 75 Q324 59 344 51 L344 -2 Q318 5 299 22 Q280 39 275 67 Q261 32 235.5 11 Q210 -10 173 -10 Q147 -10 126.5 2 Q106 14 96 39 L94 39 L108 -160 L54 -170 L54 517 Z " />
<glyph glyph-name="partialdiff" unicode="&#x2202;" horiz-adv-x="346" d="M176 -9 Q116 -9 83 25 Q50 59 50 125 L50 393 Q50 456 85.5 490.5 Q121 525 176 525 Q181 525 189.5 523.5 Q198 522 206 518 L92 713 L151 713 L285 479 Q293 464 299 442.5 Q305 421 305 397 L305 128 Q305 58 270.5 24.5 Q236 -9 176 -9 Z M178 35 Q202 35 216.5 42.5 Q231 50 239.5 62 Q248 74 251 90 Q254 106 254 123 L254 397 Q254 414 250.5 429.5 Q247 445 238.5 456.5 Q230 468 216 475 Q202 482 181 482 Q139 482 120 456.5 Q101 431 101 396 L101 119 Q101 103 105 88 Q109 73 118.5 61 Q128 49 142.5 42 Q157 35 178 35 Z " />
<glyph glyph-name="product" unicode="&#x220f;" horiz-adv-x="448" d="M89 663 L27 663 L27 713 L421 713 L421 663 L363 663 L363 -133 L309 -133 L309 663 L143 663 L143 -133 L89 -133 L89 663 Z " />
<glyph glyph-name="summation" unicode="&#x2211;" horiz-adv-x="338" d="M35 -93 L228 305 L34 675 L34 714 L304 714 L304 663 L101 663 L281 322 L281 288 L99 -83 L305 -83 L305 -133 L35 -133 L35 -93 Z " />
<glyph glyph-name="radical" unicode="&#x221a;" horiz-adv-x="393" d="M37 386 L92 386 L173 -33 L174 -33 L329 713 L381 713 L196 -133 L145 -133 L37 386 Z " />
<glyph glyph-name="integral" unicode="&#x222b;" horiz-adv-x="268" d="M37 -169 Q27 -169 17 -168 Q7 -167 -2 -165 L1 -121 Q5 -122 13.5 -122.5 Q22 -123 26 -123 Q52 -123 59.5 -108 Q67 -93 69 -68 L112 626 Q114 668 138.5 695.5 Q163 723 207 723 Q217 723 227.5 722 Q238 721 249 718 L246 675 Q231 678 210 678 Q191 678 177.5 665.5 Q164 653 162 627 L120 -75 Q118 -114 99.5 -141.5 Q81 -169 37 -169 Z " />
<glyph glyph-name="dagger" unicode="&#x2020;" horiz-adv-x="362" d="M158 490 L42 490 L42 533 L158 533 L158 714 L205 714 L205 533 L320 533 L320 490 L205 490 L205 -116 L158 -116 L158 490 Z " />
<glyph glyph-name="daggerdbl" unicode="&#x2021;" horiz-adv-x="362" d="M158 72 L42 72 L42 116 L158 116 L158 490 L42 490 L42 533 L158 533 L158 714 L205 714 L205 533 L320 533 L320 490 L205 490 L205 116 L320 116 L320 72 L205 72 L205 -116 L158 -116 L158 72 Z " />
<glyph glyph-name="florin" unicode="&#x192;" horiz-adv-x="267" d="M39 -169 Q19 -169 3 -166 L5 -121 Q7 -121 15.5 -121.5 Q24 -122 28 -122 Q53 -122 62 -107.5 Q71 -93 73 -67 L111 455 L54 455 L56 500 L113 500 L123 624 Q127 669 152 695.5 Q177 722 220 722 Q230 722 241 721 Q252 720 263 717 L260 674 Q245 677 225 677 Q205 677 191 664.5 Q177 652 175 623 L165 500 L233 500 L230 455 L163 455 L125 -75 Q122 -115 102.5 -142 Q83 -169 39 -169 Z " />
<glyph glyph-name="lozenge" unicode="&#x25ca;" horiz-adv-x="381" d="M35 339 L35 354 L169 714 L210 714 L346 354 L346 340 L210 -2 L169 -2 L35 339 Z M300 345 L188 649 L83 347 L192 60 L300 345 Z " />
<glyph glyph-name="minus" unicode="&#x2212;" horiz-adv-x="420" d="M67 341 L353 341 L353 298 L67 298 L67 341 Z " />
<glyph glyph-name="infinity" unicode="&#x221e;" horiz-adv-x="627" d="M462 192 Q414 192 377.5 220 Q341 248 312 285 Q296 267 278.5 250.5 Q261 234 241.5 221.5 Q222 209 201 201 Q180 193 159 193 Q129 193 105 203 Q81 213 63.5 230.5 Q46 248 37 271 Q28 294 28 320 Q28 348 38.5 372 Q49 396 67 413 Q85 430 109.5 440 Q134 450 162 450 Q208 450 245.5 423.5 Q283 397 316 357 Q331 372 348.5 387.5 Q366 403 385.5 415.5 Q405 428 426.5 436 Q448 444 471 444 Q530 444 564.5 412 Q599 380 599 326 Q599 297 589 272.5 Q579 248 560.5 230 Q542 212 517 202 Q492 192 462 192 Z M156 232 Q194 232 226.5 258.5 Q259 285 291 320 Q280 336 266 352.5 Q252 369 235.5 382 Q219 395 200 403.5 Q181 412 161 412 Q123 412 97.5 388 Q72 364 72 328 Q72 309 77.5 292 Q83 275 93.5 261.5 Q104 248 119.5 240 Q135 232 156 232 Z M464 231 Q504 231 530 257 Q556 283 556 321 Q556 359 535 383.5 Q514 408 469 408 Q437 408 403 381 Q369 354 337 320 Q363 285 393.5 258 Q424 231 464 231 Z " />
<glyph glyph-name="ordfeminine" unicode="&#xaa;" horiz-adv-x="252" d="M99 396 Q73 396 54 417.5 Q35 439 35 487 Q35 532 60.5 557.5 Q86 583 127 583 L155 583 L155 645 Q155 660 145.5 669 Q136 678 119 678 Q102 678 91.5 669 Q81 660 81 646 L81 615 L42 615 L42 644 Q42 676 63.5 693.5 Q85 711 122 711 Q158 711 177.5 693.5 Q197 676 197 645 L197 473 Q197 458 197.5 435 Q198 412 199 402 L160 402 L157 434 Q147 413 130.5 404.5 Q114 396 99 396 Z M113 431 Q131 431 143 445.5 Q155 460 155 478 L155 554 L127 554 Q107 554 91.5 540.5 Q76 527 76 492 Q76 459 87 445 Q98 431 113 431 Z M44 361 L198 361 L198 320 L44 320 L44 361 Z " />
<glyph glyph-name="ordmasculine" unicode="&#xba;" horiz-adv-x="245" d="M121 397 Q81 397 59.5 417.5 Q38 438 38 480 L38 628 Q38 668 62 688.5 Q86 709 123 709 Q159 709 182.5 689 Q206 669 206 629 L206 479 Q206 437 182.5 417 Q159 397 121 397 Z M122 431 Q147 431 155.5 444.5 Q164 458 164 477 L164 629 Q164 648 154.5 661 Q145 674 122 674 Q99 674 89.5 661 Q80 648 80 629 L80 477 Q80 458 89.5 444.5 Q99 431 122 431 Z M46 360 L200 360 L200 320 L46 320 L46 360 Z " />
<glyph glyph-name="degree" unicode="&#xb0;" horiz-adv-x="227" d="M113 558 Q78 558 56 582 Q34 606 34 639 Q34 673 56.5 697.5 Q79 722 113 722 Q148 722 170.5 697.5 Q193 673 193 639 Q193 606 170 582 Q147 558 113 558 Z M113 587 Q134 587 148 602.5 Q162 618 162 639 Q162 662 148 677 Q134 692 113 692 Q92 692 78 677 Q64 662 64 639 Q64 618 78 602.5 Q92 587 113 587 Z " />
<glyph glyph-name="multiply" unicode="&#xd7;" horiz-adv-x="420" d="M72 210 L181 321 L158 343 Q143 359 126 376.5 Q109 394 93.5 409 Q78 424 71 431 L100 460 L210 350 L320 460 L348 431 L238 322 Q245 314 260 298 L293 266 Q310 249 325 233.5 Q340 218 348 211 L320 182 L210 292 Q202 285 186.5 269.5 Q171 254 154.5 236.5 Q138 219 122 203 L99 180 L72 210 Z " />
<glyph glyph-name="divide" unicode="&#xf7;" horiz-adv-x="420" d="M186 232 L235 232 L235 143 L186 143 L186 232 Z M67 341 L352 341 L352 298 L67 298 L67 341 Z M186 487 L235 487 L235 399 L186 399 L186 487 Z " />
<glyph glyph-name="plusminus" unicode="&#xb1;" horiz-adv-x="420" d="M191 335 L66 335 L66 378 L191 378 L191 509 L230 509 L230 378 L354 378 L354 335 L231 335 L231 206 L191 206 L191 335 Z M67 147 L354 147 L354 105 L67 105 L67 147 Z " />
<glyph glyph-name="approxequal" unicode="&#x2248;" horiz-adv-x="420" d="M66 225 Q70 256 84.5 278.5 Q99 301 129 301 Q143 301 165 297 Q187 293 210.5 287.5 Q234 282 255.5 278 Q277 274 289 274 Q303 274 309.5 283 Q316 292 320 309 L353 303 Q349 271 334 249 Q319 227 291 227 Q277 227 254.5 231.5 Q232 236 208 241 Q184 246 162.5 250.5 Q141 255 129 255 Q115 255 108.5 246 Q102 237 98 220 L66 225 Z M66 348 Q70 379 84.5 401.5 Q99 424 129 424 Q143 424 165 420 Q187 416 210.5 410.5 Q234 405 255.5 401 Q277 397 289 397 Q303 397 309.5 406.5 Q316 416 320 432 L353 426 Q349 394 334 372 Q319 350 291 350 Q277 350 254.5 354.5 Q232 359 208 364 Q184 369 162.5 373.5 Q141 378 129 378 Q115 378 108.5 369 Q102 360 98 343 L66 348 Z " />
<glyph glyph-name="logicalnot" unicode="&#xac;" horiz-adv-x="420" d="M328 290 L48 290 L48 330 L371 330 L371 184 L328 184 L328 290 Z " />
<glyph glyph-name="notequal" unicode="&#x2260;" horiz-adv-x="420" d="M145 149 L170 230 L66 230 L66 273 L183 273 L211 356 L66 356 L66 398 L225 398 Q226 402 229.5 413 Q233 424 237 436.5 Q241 449 244 460.5 Q247 472 249 476 L288 467 L266 398 L353 398 L353 356 L253 356 Q251 351 247 339 Q243 327 238.5 314.5 Q234 302 230 290 Q226 278 224 273 L353 273 L353 230 L211 230 L183 142 L145 149 Z " />
<glyph glyph-name="lessequal" unicode="&#x2264;" horiz-adv-x="420" d="M76 337 L76 371 L326 493 L345 456 L132 354 L343 249 L323 212 L76 337 Z M67 147 L353 147 L353 104 L67 104 L67 147 Z " />
<glyph glyph-name="greaterequal" unicode="&#x2265;" horiz-adv-x="420" d="M76 249 L288 354 Q274 361 244 375.5 Q214 390 181 405.5 Q148 421 118 435.5 Q88 450 74 456 L94 493 L344 371 L344 337 L96 212 L76 249 Z M66 147 L353 147 L353 104 L66 104 L66 147 Z " />
<glyph glyph-name="asciicircum" unicode="&#x5e;" horiz-adv-x="327" d="M144 502 L188 502 L247 220 L205 220 L165 427 L121 220 L78 220 L144 502 Z " />
<glyph glyph-name="asciitilde" unicode="&#x7e;" horiz-adv-x="395" d="M54 277 Q58 309 72.5 331 Q87 353 117 353 Q131 353 153 349 Q175 345 198.5 339.5 Q222 334 243.5 330 Q265 326 277 326 Q291 326 297.5 335 Q304 344 308 361 L341 355 Q337 323 322 301 Q307 279 279 279 Q265 279 242.5 283.5 Q220 288 196 293 Q172 298 150.5 302.5 Q129 307 117 307 Q103 307 96.5 298 Q90 289 86 272 L54 277 Z " />
<glyph glyph-name="pi" unicode="&#x3c0;" horiz-adv-x="366" d="M324 -4 Q289 -4 266 15 Q243 34 243 79 L243 472 L126 472 Q124 417 122.5 357 Q121 297 118.5 236.5 Q116 176 113 115.5 Q110 55 106 0 L55 0 Q59 55 62.5 115 Q66 175 68.5 235.5 Q71 296 73 356 Q75 416 76 472 L20 472 L26 518 L353 518 L353 472 L293 472 L293 101 Q293 79 298.5 61.5 Q304 44 324 44 L324 -4 Z " />
<glyph glyph-name="onesuperior" unicode="&#xb9;" horiz-adv-x="194" d="M81 733 L45 721 L38 754 L98 780 L125 780 L125 380 L81 380 L81 733 Z " />
<glyph glyph-name="twosuperior" unicode="&#xb2;" horiz-adv-x="240" d="M39 408 L99 510 Q126 556 140.5 595.5 Q155 635 155 675 L155 683 Q155 709 146 726 Q137 743 115 743 Q94 743 85 727.5 Q76 712 76 692 L76 669 L36 669 L36 693 Q36 732 57 756.5 Q78 781 117 781 Q157 781 178 755 Q199 729 199 681 Q199 653 193.5 628 Q188 603 178.5 579.5 Q169 556 156.5 533.5 Q144 511 131 487 L91 417 L203 417 L203 380 L39 380 L39 408 Z " />
<glyph glyph-name="threesuperior" unicode="&#xb3;" horiz-adv-x="240" d="M118 370 Q94 370 78 378 Q62 386 52 399.5 Q42 413 37.5 430 Q33 447 33 466 L33 483 L74 483 L74 465 Q74 441 86 424 Q98 407 118 407 Q161 407 161 487 Q161 508 156 522.5 Q151 537 143.5 546 Q136 555 127.5 559 Q119 563 111 563 L84 563 L84 600 L110 600 Q157 600 157 675 Q157 714 145 728.5 Q133 743 116 743 Q96 743 85.5 727.5 Q75 712 75 687 L75 670 L35 670 L35 691 Q35 734 57 757 Q79 780 119 780 Q161 780 180.5 751 Q200 722 200 680 Q200 648 189 620.5 Q178 593 152 584 L152 582 Q181 573 193 544.5 Q205 516 205 484 Q205 425 180.5 397.5 Q156 370 118 370 Z " />
<glyph glyph-name="onequarter" unicode="&#xbc;" horiz-adv-x="541" d="M423 105 L309 105 L309 139 L412 400 L457 400 L350 141 L423 141 L423 222 L465 256 L465 141 L499 141 L499 105 L465 105 L465 0 L423 0 L423 105 Z M101 669 L65 657 L58 690 L118 716 L145 716 L145 316 L101 316 L101 669 Z M380 716 L417 716 L143 -2 L105 -2 L380 716 Z " />
<glyph glyph-name="onehalf" unicode="&#xbd;" horiz-adv-x="541" d="M332 28 L392 130 Q419 176 433.5 215.5 Q448 255 448 295 L448 303 Q448 329 439 346 Q430 363 408 363 Q387 363 378 347.5 Q369 332 369 312 L369 289 L329 289 L329 313 Q329 352 350 376.5 Q371 401 410 401 Q450 401 471 375 Q492 349 492 301 Q492 273 486.5 248 Q481 223 471.5 199.5 Q462 176 449.5 153.5 Q437 131 424 107 L384 37 L496 37 L496 0 L332 0 L332 28 Z M100 669 L64 657 L57 690 L117 716 L144 716 L144 316 L100 316 L100 669 Z M372 716 L409 716 L135 -2 L97 -2 L372 716 Z " />
<glyph glyph-name="threequarters" unicode="&#xbe;" horiz-adv-x="541" d="M121 306 Q97 306 81 314 Q65 322 55 335.5 Q45 349 40.5 366 Q36 383 36 402 L36 419 L77 419 L77 401 Q77 377 89 360 Q101 343 121 343 Q164 343 164 423 Q164 444 159 458.5 Q154 473 146.5 482 Q139 491 130.5 495 Q122 499 114 499 L87 499 L87 536 L113 536 Q160 536 160 611 Q160 650 148 664.5 Q136 679 119 679 Q99 679 88.5 663.5 Q78 648 78 623 L78 606 L38 606 L38 627 Q38 670 60 693 Q82 716 122 716 Q164 716 183.5 687 Q203 658 203 616 Q203 584 192 556.5 Q181 529 155 520 L155 518 Q184 509 196 480.5 Q208 452 208 420 Q208 361 183.5 333.5 Q159 306 121 306 Z M426 105 L312 105 L312 139 L415 400 L460 400 L353 141 L426 141 L426 222 L468 256 L468 141 L502 141 L502 105 L468 105 L468 0 L426 0 L426 105 Z M398 716 L435 716 L161 -2 L123 -2 L398 716 Z " />
<glyph glyph-name="perthousand" unicode="&#x2030;" horiz-adv-x="762" d="M628 -10 Q587 -10 561.5 14.5 Q536 39 536 86 L536 233 Q536 281 561.5 310 Q587 339 629 339 Q670 339 696 313 Q722 287 722 239 L722 86 Q722 40 695.5 15 Q669 -10 628 -10 Z M628 27 Q657 27 669 45.5 Q681 64 681 84 L681 245 Q681 264 668.5 282.5 Q656 301 628 301 Q600 301 588 283 Q576 265 576 245 L576 84 Q576 61 587.5 44 Q599 27 628 27 Z M132 374 Q89 374 64.5 399.5 Q40 425 40 472 L40 623 Q40 671 65.5 696.5 Q91 722 132 722 Q174 722 200 697 Q226 672 226 623 L226 470 Q226 423 199.5 398.5 Q173 374 132 374 Z M132 411 Q161 411 173 429.5 Q185 448 185 468 L185 628 Q185 648 172.5 666.5 Q160 685 132 685 Q103 685 91.5 666.5 Q80 648 80 628 L80 468 Q80 445 91.5 428 Q103 411 132 411 Z M384 716 L423 716 L153 -3 L111 -3 L384 716 Z M396 -10 Q354 -10 329 14.5 Q304 39 304 86 L304 233 Q304 281 329.5 310 Q355 339 397 339 Q438 339 464.5 313 Q491 287 491 239 L491 86 Q491 40 464 15 Q437 -10 396 -10 Z M396 27 Q425 27 437 45.5 Q449 64 449 84 L449 245 Q449 264 437 282.5 Q425 301 396 301 Q368 301 356.5 283 Q345 265 345 245 L345 84 Q345 61 356.5 44 Q368 27 396 27 Z " />
<glyph glyph-name="gravecomb" unicode="&#x300;" horiz-adv-x="1" d="M-621 717 L-561 717 L-492 578 L-534 578 L-621 717 Z " />
<glyph glyph-name="acutecomb" unicode="&#x301;" horiz-adv-x="1" d="M-526 717 L-466 717 L-553 578 L-595 578 L-526 717 Z " />
<glyph glyph-name="uni0302" unicode="&#x302;" horiz-adv-x="1" d="M-530 718 L-490 718 L-422 579 L-469 579 L-512 672 L-555 579 L-600 579 L-530 718 Z " />
<glyph glyph-name="tildecomb" unicode="&#x303;" horiz-adv-x="1" d="M-610 594 Q-606 625 -589.5 647 Q-573 669 -544 669 Q-531 669 -518 664.5 Q-505 660 -492 655 Q-479 650 -466 645.5 Q-453 641 -440 641 Q-426 641 -419.5 650 Q-413 659 -408 676 L-374 669 Q-378 638 -395.5 616.5 Q-413 595 -440 595 Q-454 595 -468 599.5 Q-482 604 -495.5 609.5 Q-509 615 -521.5 619.5 Q-534 624 -544 624 Q-559 624 -565 615 Q-571 606 -575 589 L-610 594 Z " />
<glyph glyph-name="uni0304" unicode="&#x304;" horiz-adv-x="1" d="M-590 643 L-414 643 L-414 597 L-590 597 L-590 643 Z " />
<glyph glyph-name="uni0306" unicode="&#x306;" horiz-adv-x="1" d="M-504 583 Q-555 583 -582 615 Q-609 647 -610 705 L-568 705 Q-567 690 -563.5 675.5 Q-560 661 -552.5 649 Q-545 637 -533 630 Q-521 623 -501 623 Q-468 623 -453.5 646.5 Q-439 670 -439 705 L-398 705 Q-400 643 -430.5 613 Q-461 583 -504 583 Z " />
<glyph glyph-name="uni0307" unicode="&#x307;" horiz-adv-x="1" d="M-594 713 L-544 713 L-544 615 L-594 615 L-594 713 Z " />
<glyph glyph-name="uni0308" unicode="&#x308;" horiz-adv-x="1" d="M-593 713 L-542 713 L-542 615 L-593 615 L-593 713 Z M-480 713 L-429 713 L-429 615 L-480 615 L-480 713 Z " />
<glyph glyph-name="uni030A" unicode="&#x30a;" horiz-adv-x="1" d="M-532 576 Q-570 576 -588.5 598.5 Q-607 621 -607 650 Q-607 682 -586.5 705.5 Q-566 729 -532 729 Q-495 729 -476 707.5 Q-457 686 -457 655 Q-457 621 -478 598.5 Q-499 576 -532 576 Z M-532 605 Q-512 605 -500.5 617.5 Q-489 630 -489 652 Q-489 672 -499.5 686 Q-510 700 -533 700 Q-553 700 -563 686.5 Q-573 673 -573 651 Q-573 628 -561.5 616.5 Q-550 605 -532 605 Z " />
<glyph glyph-name="uni030B" unicode="&#x30b;" horiz-adv-x="1" d="M-530 717 L-470 717 L-557 578 L-599 578 L-530 717 Z M-427 717 L-367 717 L-454 578 L-496 578 L-427 717 Z " />
<glyph glyph-name="uni030C" unicode="&#x30c;" horiz-adv-x="1" d="M-600 719 L-553 719 L-510 626 L-467 719 L-422 719 L-492 579 L-532 579 L-600 719 Z " />
<glyph glyph-name="uni0312" unicode="&#x312;" horiz-adv-x="1" d="M-564 720 L-529 720 L-533 578 L-587 578 L-564 720 Z " />
<glyph glyph-name="uni0313" unicode="&#x313;" horiz-adv-x="1" d="M-596 713 L-542 713 L-566 563 L-601 563 L-596 713 Z " />
<glyph glyph-name="uni0326" unicode="&#x326;" horiz-adv-x="1" d="M-597 -39 L-543 -39 L-567 -170 L-605 -170 L-597 -39 Z " />
<glyph glyph-name="uni0327" unicode="&#x327;" horiz-adv-x="1" d="M-541 -170 Q-554 -170 -571.5 -168 Q-589 -166 -606 -161 L-606 -122 Q-589 -126 -575 -128 Q-561 -130 -544 -130 Q-525 -130 -513.5 -124 Q-502 -118 -502 -103 Q-502 -89 -514.5 -82.5 Q-527 -76 -551 -74 L-575 -72 L-555 10 L-523 10 L-537 -45 Q-522 -46 -507.5 -49 Q-493 -52 -481.5 -58.5 Q-470 -65 -463 -76 Q-456 -87 -456 -103 Q-456 -132 -480.5 -151 Q-505 -170 -541 -170 Z " />
<glyph glyph-name="uni0328" unicode="&#x328;" horiz-adv-x="1" d="M-530 -170 Q-561 -170 -584 -152 Q-607 -134 -607 -96 Q-607 -74 -599 -56.5 Q-591 -39 -578.5 -25 Q-566 -11 -551.5 -0.5 Q-537 10 -524 18 L-499 0 Q-529 -15 -546.5 -36 Q-564 -57 -564 -83 Q-564 -106 -552 -116 Q-540 -126 -521 -126 Q-510 -126 -501 -123.5 Q-492 -121 -484 -117 L-468 -153 Q-478 -159 -492.5 -164.5 Q-507 -170 -530 -170 Z " />
<glyph glyph-name="uni00A0" unicode="&#xa0;" horiz-adv-x="140" d="" />
</font>
</svg>
