<?xml version="1.0" encoding="UTF-8"?>
<svg xmlns="http://www.w3.org/2000/svg" xmlns:xlink="http://www.w3.org/1999/xlink" version="1.2" >
<font id="FlamaCond-Medium">
<font-face  font-family="Flama Cond" units-per-em="1000" ascent="1020" descent="-225" font-style="normal" font-weight="550" font-stretch="condensed" cap-height="713" x-height="541" underline-position="-56" underline-thickness="73" />
<missing-glyph  horiz-adv-x="475" d="M51 0 L51 713 L424 713 L424 0 L51 0 Z M163 102 L312 102 L312 611 L163 611 L163 102 Z " />
<glyph glyph-name="NULL" d="" />
<glyph glyph-name="nonmarkingreturn" unicode="&#xd;" horiz-adv-x="145" d="" />
<glyph glyph-name="space" unicode="&#x20;" horiz-adv-x="145" d="" />
<glyph glyph-name="period" unicode="&#x2e;" horiz-adv-x="182" d="M41 137 L142 137 L142 0 L41 0 L41 137 Z " />
<glyph glyph-name="ellipsis" unicode="&#x2026;" horiz-adv-x="525" d="M41 137 L141 137 L141 0 L41 0 L41 137 Z M213 137 L313 137 L313 0 L213 0 L213 137 Z M384 137 L484 137 L484 0 L384 0 L384 137 Z " />
<glyph glyph-name="comma" unicode="&#x2c;" horiz-adv-x="182" d="M79 7 L41 7 L41 137 L142 137 L142 13 L104 -116 L51 -116 L79 7 Z " />
<glyph glyph-name="colon" unicode="&#x3a;" horiz-adv-x="182" d="M41 137 L142 137 L142 0 L41 0 L41 137 Z M42 530 L142 530 L142 394 L42 394 L42 530 Z " />
<glyph glyph-name="semicolon" unicode="&#x3b;" horiz-adv-x="183" d="M79 7 L42 7 L42 137 L142 137 L142 13 L104 -116 L51 -116 L79 7 Z M42 530 L142 530 L142 394 L42 394 L42 530 Z " />
<glyph glyph-name="hyphen" unicode="&#x2d;" horiz-adv-x="234" d="M25 341 L208 341 L208 258 L25 258 L25 341 Z " />
<glyph glyph-name="exclam" unicode="&#x21;" horiz-adv-x="202" d="M50 449 L50 714 L153 714 L153 449 L137 201 L67 201 L50 449 Z M52 136 L150 136 L150 0 L52 0 L52 136 Z " />
<glyph glyph-name="exclamdown" unicode="&#xa1;" horiz-adv-x="202" d="M50 104 L66 352 L135 352 L153 104 L153 -162 L50 -162 L50 104 Z M52 554 L150 554 L150 418 L52 418 L52 554 Z " />
<glyph glyph-name="question" unicode="&#x3f;" horiz-adv-x="366" d="M124 231 Q124 284 138.5 323 Q153 362 174 393 Q197 427 214 463.5 Q231 500 231 548 Q231 564 228 579 Q225 594 219 606 Q213 618 202.5 625.5 Q192 633 177 633 Q151 633 137.5 613.5 Q124 594 124 560 L124 510 L34 510 L34 558 Q34 635 74 679.5 Q114 724 184 724 Q257 724 296 676.5 Q335 629 335 547 Q335 516 329 490.5 Q323 465 313.5 442.5 Q304 420 292 401 Q280 382 269 365 Q251 338 235 307 Q219 276 219 240 L219 202 L124 202 L124 231 Z M122 136 L225 136 L225 0 L122 0 L122 136 Z " />
<glyph glyph-name="questiondown" unicode="&#xbf;" horiz-adv-x="367" d="M185 -170 Q112 -170 73.5 -122.5 Q35 -75 35 8 Q35 40 41 66.5 Q47 93 56.5 115 Q66 137 77.5 155.5 Q89 174 101 191 Q119 217 135 248 Q151 279 151 317 L151 355 L245 355 L245 325 Q244 272 230.5 232 Q217 192 197 162 Q173 127 156 91.5 Q139 56 139 8 Q139 -26 151 -52.5 Q163 -79 193 -79 Q219 -79 232.5 -59 Q246 -39 246 -5 L246 44 L336 44 L336 -3 Q336 -81 296 -125.5 Q256 -170 185 -170 Z M146 553 L248 553 L248 417 L146 417 L146 553 Z " />
<glyph glyph-name="asterisk" unicode="&#x2a;" horiz-adv-x="337" d="M53 463 L115 556 L20 612 L51 662 L139 612 L139 714 L200 714 L200 611 L286 662 L318 612 L222 556 L285 463 L234 430 L169 525 L103 430 L53 463 Z " />
<glyph glyph-name="quotesingle" unicode="&#x27;" horiz-adv-x="180" d="M42 600 L42 714 L136 714 L136 600 L122 468 L57 468 L42 600 Z " />
<glyph glyph-name="quotedbl" unicode="&#x22;" horiz-adv-x="328" d="M42 600 L42 714 L136 714 L136 600 L122 468 L57 468 L42 600 Z M192 600 L192 714 L286 714 L286 600 L272 468 L207 468 L192 600 Z " />
<glyph glyph-name="quoteleft" unicode="&#x2018;" horiz-adv-x="181" d="M40 592 L79 715 L130 715 L106 598 L140 598 L140 468 L40 468 L40 592 Z " />
<glyph glyph-name="quoteright" unicode="&#x2019;" horiz-adv-x="181" d="M75 583 L41 583 L41 714 L141 714 L141 590 L102 468 L51 468 L75 583 Z " />
<glyph glyph-name="quotesinglbase" unicode="&#x201a;" horiz-adv-x="181" d="M75 7 L41 7 L41 137 L141 137 L141 13 L102 -111 L51 -111 L75 7 Z " />
<glyph glyph-name="quotedblleft" unicode="&#x201c;" horiz-adv-x="335" d="M40 592 L79 715 L130 715 L106 598 L140 598 L140 468 L40 468 L40 592 Z M195 592 L234 715 L284 715 L261 598 L295 598 L295 468 L195 468 L195 592 Z " />
<glyph glyph-name="quotedblright" unicode="&#x201d;" horiz-adv-x="335" d="M75 583 L41 583 L41 714 L141 714 L141 590 L102 468 L51 468 L75 583 Z M229 583 L195 583 L195 714 L295 714 L295 590 L256 468 L205 468 L229 583 Z " />
<glyph glyph-name="quotedblbase" unicode="&#x201e;" horiz-adv-x="335" d="M75 7 L41 7 L41 137 L141 137 L141 13 L102 -111 L51 -111 L75 7 Z M229 7 L195 7 L195 137 L295 137 L295 13 L256 -111 L205 -111 L229 7 Z " />
<glyph glyph-name="ampersand" unicode="&#x26;" horiz-adv-x="506" d="M195 -10 Q154 -10 124 4.5 Q94 19 74.5 45.5 Q55 72 45 108 Q35 144 35 187 Q35 253 62.5 306 Q90 359 148 394 Q125 433 107 476 Q89 519 89 564 Q89 595 98 624 Q107 653 125.5 675 Q144 697 173.5 710.5 Q203 724 244 724 Q315 724 353 682 Q391 640 391 572 Q391 509 362 458.5 Q333 408 277 374 Q278 370 291 348 Q304 326 319.5 300.5 Q335 275 347.5 253.5 Q360 232 362 228 Q369 251 374.5 276.5 Q380 302 385 334 L469 324 Q461 271 445 221 Q429 171 412 134 Q414 129 425.5 109.5 Q437 90 451 67.5 Q465 45 476.5 25 Q488 5 490 0 L372 0 L336 62 Q308 28 272 9 Q236 -10 195 -10 Z M216 84 Q242 84 261.5 99 Q281 114 294 134 Q293 137 285 151.5 Q277 166 265.5 185 Q254 204 241.5 226 Q229 248 218 267 Q207 286 199 300 Q191 314 190 317 Q161 297 150 264.5 Q139 232 139 195 Q139 175 143.5 155 Q148 135 157.5 119 Q167 103 181.5 93.5 Q196 84 216 84 Z M236 445 Q268 467 283.5 498.5 Q299 530 299 571 Q299 603 284.5 623.5 Q270 644 245 644 Q215 644 202.5 622 Q190 600 190 573 Q190 547 202.5 515.5 Q215 484 236 445 Z " />
<glyph glyph-name="zero" unicode="0" horiz-adv-x="422" d="M211 -10 Q175 -10 144.5 -0.5 Q114 9 91.5 28.5 Q69 48 56 77.5 Q43 107 43 146 L43 572 Q43 610 57 638.5 Q71 667 94 686 Q117 705 148 714.5 Q179 724 212 724 Q245 724 275 714.5 Q305 705 328.5 686.5 Q352 668 365.5 639.5 Q379 611 379 573 L379 145 Q379 106 365.5 76.5 Q352 47 329 28 Q306 9 275.5 -0.5 Q245 -10 211 -10 Z M212 81 Q244 81 258 100.5 Q272 120 272 143 L272 575 Q272 598 256 615.5 Q240 633 211 633 Q181 633 165.5 615.5 Q150 598 150 575 L150 142 Q150 119 165 100 Q180 81 212 81 Z " />
<glyph glyph-name="one" unicode="1" horiz-adv-x="276" d="M96 603 L41 589 L27 670 L139 714 L203 714 L203 0 L96 0 L96 603 Z " />
<glyph glyph-name="two" unicode="2" horiz-adv-x="379" d="M39 69 L153 268 Q195 341 215 406 Q235 471 235 531 L235 550 Q234 583 224 607.5 Q214 632 184 632 Q155 632 143 612 Q131 592 131 564 L131 521 L35 521 L35 563 Q35 636 75 680 Q115 724 190 724 Q268 724 305 676.5 Q342 629 342 547 Q342 499 332.5 453.5 Q323 408 306.5 365.5 Q290 323 269 282.5 Q248 242 226 204 L164 96 L164 94 L346 94 L346 0 L39 0 L39 69 Z " />
<glyph glyph-name="three" unicode="3" horiz-adv-x="390" d="M192 -10 Q147 -10 116 3 Q85 16 66.5 39 Q48 62 39.5 92 Q31 122 31 157 L31 195 L131 195 L131 153 Q131 120 145.5 100 Q160 80 189 80 Q203 80 214.5 85.5 Q226 91 233.5 105 Q241 119 245 142.5 Q249 166 249 201 Q249 236 241.5 258.5 Q234 281 223 293.5 Q212 306 198 310.5 Q184 315 171 315 L123 315 L123 412 L173 412 Q207 412 224.5 437.5 Q242 463 242 528 Q242 588 225.5 610.5 Q209 633 185 633 Q157 633 145 613 Q133 593 133 560 L133 521 L35 521 L35 558 Q35 639 76 681.5 Q117 724 194 724 Q267 724 306.5 675 Q346 626 346 541 Q346 481 327.5 433.5 Q309 386 262 369 L262 366 Q311 349 334 302 Q357 255 357 197 Q357 143 343.5 103.5 Q330 64 307 39 Q284 14 254.5 2 Q225 -10 192 -10 Z " />
<glyph glyph-name="four" unicode="4" horiz-adv-x="407" d="M226 172 L26 172 L26 256 L192 713 L304 713 L124 263 L226 263 L226 388 L326 457 L326 263 L376 263 L376 172 L326 172 L326 0 L226 0 L226 172 Z " />
<glyph glyph-name="five" unicode="5" horiz-adv-x="402" d="M197 -11 Q119 -11 79 31 Q39 73 39 140 L39 199 L138 199 L138 149 Q138 120 153 100.5 Q168 81 197 81 Q255 81 255 163 L255 300 Q255 336 241 355.5 Q227 375 198 375 Q178 375 163.5 363 Q149 351 139 335 L47 341 L61 713 L340 713 L340 620 L148 620 L141 423 Q161 440 184.5 449 Q208 458 237 458 Q262 458 285 450.5 Q308 443 325 426 Q342 409 352 382.5 Q362 356 362 318 L362 160 Q362 119 349.5 87 Q337 55 315 33.5 Q293 12 262.5 0.5 Q232 -11 197 -11 Z " />
<glyph glyph-name="six" unicode="6" horiz-adv-x="410" d="M205 -10 Q129 -10 85 33.5 Q41 77 41 148 L41 564 Q41 604 54 634 Q67 664 90 684 Q113 704 144 714 Q175 724 211 724 Q283 724 323.5 685.5 Q364 647 364 584 L364 526 L264 526 L264 576 Q264 600 250.5 616.5 Q237 633 209 633 Q177 633 162.5 614 Q148 595 148 570 L148 396 Q167 418 194 429 Q221 440 249 440 Q307 440 339 408 Q371 376 371 319 L371 142 Q371 72 325.5 31 Q280 -10 205 -10 Z M208 80 Q240 80 252 99.5 Q264 119 264 142 L264 309 Q264 337 250 350 Q236 363 213 363 Q185 363 166.5 343.5 Q148 324 148 297 L148 142 Q148 119 163 99.5 Q178 80 208 80 Z " />
<glyph glyph-name="seven" unicode="7" horiz-adv-x="373" d="M93 0 Q94 93 106 182.5 Q118 272 137.5 352 Q157 432 182.5 500 Q208 568 235 619 L31 619 L31 713 L347 713 L347 632 Q311 567 283.5 492 Q256 417 237.5 335.5 Q219 254 210 169 Q201 84 201 0 L93 0 Z " />
<glyph glyph-name="eight" unicode="8" horiz-adv-x="404" d="M201 -10 Q165 -10 135 -1 Q105 8 83 26.5 Q61 45 48.5 72.5 Q36 100 36 136 L36 255 Q36 293 53 321.5 Q70 350 99 365 Q71 379 57 407.5 Q43 436 43 467 L43 577 Q43 613 55.5 640 Q68 667 89.5 686 Q111 705 140.5 714.5 Q170 724 203 724 Q236 724 264.5 715 Q293 706 315 688.5 Q337 671 349.5 644.5 Q362 618 362 582 L362 472 Q362 436 347 408.5 Q332 381 304 365 Q332 352 350 325 Q368 298 368 260 L368 137 Q368 101 355.5 73.5 Q343 46 320.5 27.5 Q298 9 267.5 -0.5 Q237 -10 201 -10 Z M203 77 Q233 77 247 93.5 Q261 110 261 136 L261 267 Q261 294 244.5 310.5 Q228 327 203 327 Q177 327 160 311 Q143 295 143 269 L143 135 Q143 111 158.5 94 Q174 77 203 77 Z M203 405 Q231 405 246 423 Q261 441 261 465 L261 581 Q261 607 244.5 621.5 Q228 636 203 636 Q177 636 161 621 Q145 606 145 582 L145 464 Q145 438 161.5 421.5 Q178 405 203 405 Z " />
<glyph glyph-name="nine" unicode="9" horiz-adv-x="409" d="M203 -10 Q130 -10 87.5 29 Q45 68 45 134 L45 190 L146 190 L146 143 Q146 116 160.5 99 Q175 82 202 82 Q231 82 246 98.5 Q261 115 261 142 L261 325 Q242 300 216 288 Q190 276 162 276 Q104 276 71.5 308.5 Q39 341 39 398 L39 572 Q39 643 84.5 683.5 Q130 724 204 724 Q281 724 324.5 680.5 Q368 637 368 567 L368 161 Q368 81 322 35.5 Q276 -10 203 -10 Z M197 353 Q221 353 241 371.5 Q261 390 261 418 L261 575 Q261 598 246 617.5 Q231 637 201 637 Q185 637 174.5 631 Q164 625 157.5 616 Q151 607 148.5 596 Q146 585 146 574 L146 409 Q146 380 160.5 366.5 Q175 353 197 353 Z " />
<glyph glyph-name="A" unicode="A" horiz-adv-x="485" d="M169 715 L321 715 L461 0 L349 0 L313 186 L162 186 L128 0 L24 0 L169 715 Z M295 277 L240 588 L237 588 L180 277 L295 277 Z " />
<glyph glyph-name="Agrave" unicode="&#xc0;" horiz-adv-x="485" d="M169 715 L321 715 L461 0 L349 0 L313 186 L162 186 L128 0 L24 0 L169 715 Z M295 277 L240 588 L237 588 L180 277 L295 277 Z M105 908 L212 908 L280 762 L203 762 L105 908 Z " />
<glyph glyph-name="Aacute" unicode="&#xc1;" horiz-adv-x="485" d="M169 715 L321 715 L461 0 L349 0 L313 186 L162 186 L128 0 L24 0 L169 715 Z M295 277 L240 588 L237 588 L180 277 L295 277 Z M269 908 L376 908 L279 762 L202 762 L269 908 Z " />
<glyph glyph-name="Acircumflex" unicode="&#xc2;" horiz-adv-x="485" d="M169 715 L321 715 L461 0 L349 0 L313 186 L162 186 L128 0 L24 0 L169 715 Z M295 277 L240 588 L237 588 L180 277 L295 277 Z M205 908 L281 908 L365 762 L281 762 L241 840 L200 762 L120 762 L205 908 Z " />
<glyph glyph-name="Atilde" unicode="&#xc3;" horiz-adv-x="485" d="M169 715 L321 715 L461 0 L349 0 L313 186 L162 186 L128 0 L24 0 L169 715 Z M295 277 L240 588 L237 588 L180 277 L295 277 Z M97 781 Q104 823 125 853.5 Q146 884 183 884 Q198 884 212.5 879.5 Q227 875 241.5 869.5 Q256 864 270.5 859.5 Q285 855 299 855 Q314 855 321.5 864 Q329 873 335 892 L387 879 Q384 859 377 840 Q370 821 359.5 807 Q349 793 334 784.5 Q319 776 301 776 Q287 776 271.5 780.5 Q256 785 241 790.5 Q226 796 212 800.5 Q198 805 187 805 Q172 805 165 797 Q158 789 153 769 L97 781 Z " />
<glyph glyph-name="Adieresis" unicode="&#xc4;" horiz-adv-x="485" d="M169 715 L321 715 L461 0 L349 0 L313 186 L162 186 L128 0 L24 0 L169 715 Z M295 277 L240 588 L237 588 L180 277 L295 277 Z M129 898 L222 898 L222 771 L129 771 L129 898 Z M262 898 L355 898 L355 771 L262 771 L262 898 Z " />
<glyph glyph-name="Aring" unicode="&#xc5;" horiz-adv-x="485" d="M169 715 L321 715 L461 0 L349 0 L313 186 L162 186 L128 0 L24 0 L169 715 Z M295 277 L240 588 L237 588 L180 277 L295 277 Z M242 756 Q202 756 178 781 Q154 806 154 843 Q154 881 179 907 Q204 933 243 933 Q284 933 307.5 909 Q331 885 331 847 Q331 808 305.5 782 Q280 756 242 756 Z M243 798 Q263 798 274.5 811 Q286 824 286 845 Q286 865 275 878.5 Q264 892 242 892 Q222 892 211.5 878.5 Q201 865 201 844 Q201 823 213 810.5 Q225 798 243 798 Z " />
<glyph glyph-name="AE" unicode="&#xc6;" horiz-adv-x="657" d="M245 713 L622 713 L622 619 L422 619 L422 416 L581 416 L581 321 L422 321 L422 96 L623 96 L623 0 L310 0 L310 199 L184 199 L128 0 L17 0 L245 713 Z M310 285 L310 601 L306 601 L214 285 L310 285 Z " />
<glyph glyph-name="B" unicode="B" horiz-adv-x="450" d="M51 713 L250 713 Q326 713 366 668 Q406 623 406 533 Q406 462 380 420 Q354 378 311 367 L311 363 Q362 351 386.5 308 Q411 265 411 199 Q411 147 399.5 109.5 Q388 72 367.5 47.5 Q347 23 318.5 11.5 Q290 0 256 0 L51 0 L51 713 Z M230 92 Q264 92 281.5 121 Q299 150 299 206 Q299 265 278 291 Q257 317 222 317 L163 317 L163 92 L230 92 Z M220 408 Q255 408 276 434.5 Q297 461 297 519 Q297 573 278.5 598 Q260 623 230 623 L163 623 L163 408 L220 408 Z " />
<glyph glyph-name="C" unicode="C" horiz-adv-x="445" d="M232 -10 Q148 -10 95 33.5 Q42 77 42 163 L42 551 Q42 591 56 623.5 Q70 656 95.5 678 Q121 700 156 712 Q191 724 232 724 Q271 724 303 713 Q335 702 358.5 681.5 Q382 661 395 631.5 Q408 602 408 565 L408 486 L307 486 L307 553 Q307 587 287.5 607.5 Q268 628 232 628 Q191 628 172.5 605 Q154 582 154 547 L154 170 Q154 130 175 109 Q196 88 233 88 Q268 88 287.5 109 Q307 130 307 162 L307 229 L408 229 L408 156 Q408 118 395 87 Q382 56 358.5 34.5 Q335 13 303 1.5 Q271 -10 232 -10 Z " />
<glyph glyph-name="Ccedilla" unicode="&#xc7;" horiz-adv-x="445" d="M234 -170 Q218 -170 197 -168 Q176 -166 155 -160 L155 -108 Q196 -119 229 -119 Q265 -119 265 -96 Q265 -83 253.5 -78.5 Q242 -74 225 -72 L191 -70 L206 -9 Q132 -2 87 41 Q42 84 42 163 L42 551 Q42 591 56 623.5 Q70 656 95.5 678 Q121 700 156 712 Q191 724 232 724 Q271 724 303 713 Q335 702 358.5 681.5 Q382 661 395 631.5 Q408 602 408 565 L408 486 L307 486 L307 553 Q307 587 287.5 607.5 Q268 628 232 628 Q191 628 172.5 605 Q154 582 154 547 L154 170 Q154 130 175 109 Q196 88 233 88 Q268 88 287.5 109 Q307 130 307 162 L307 229 L408 229 L408 156 Q408 84 364.5 40.5 Q321 -3 251 -9 L246 -32 Q261 -32 277.5 -34.5 Q294 -37 307.5 -44 Q321 -51 330 -62.5 Q339 -74 339 -93 Q339 -129 307.5 -149.5 Q276 -170 234 -170 Z " />
<glyph glyph-name="D" unicode="D" horiz-adv-x="460" d="M51 713 L238 713 Q276 713 309 703 Q342 693 366 673 Q390 653 404 622.5 Q418 592 418 551 L418 171 Q418 127 404 95 Q390 63 365.5 42 Q341 21 308 10.5 Q275 0 237 0 L51 0 L51 713 Z M228 96 Q250 96 265 103 Q280 110 289 121.5 Q298 133 302 147.5 Q306 162 306 176 L306 540 Q306 572 287.5 594.5 Q269 617 228 617 L163 617 L163 96 L228 96 Z " />
<glyph glyph-name="Eth" unicode="&#xd0;" horiz-adv-x="473" d="M22 410 L64 410 L64 713 L251 713 Q289 713 322 703 Q355 693 379 673 Q403 653 417 622.5 Q431 592 431 551 L431 171 Q431 127 417 95 Q403 63 378.5 42 Q354 21 321 10.5 Q288 0 250 0 L64 0 L64 333 L22 333 L22 410 Z M241 96 Q263 96 278 103 Q293 110 302 121.5 Q311 133 315 147.5 Q319 162 319 176 L319 540 Q319 572 300.5 594.5 Q282 617 241 617 L176 617 L176 410 L259 410 L259 333 L176 333 L176 96 L241 96 Z " />
<glyph glyph-name="E" unicode="E" horiz-adv-x="398" d="M51 713 L363 713 L363 617 L163 617 L163 418 L323 418 L323 322 L163 322 L163 96 L364 96 L364 0 L51 0 L51 713 Z " />
<glyph glyph-name="Egrave" unicode="&#xc8;" horiz-adv-x="398" d="M51 713 L363 713 L363 617 L163 617 L163 418 L323 418 L323 322 L163 322 L163 96 L364 96 L364 0 L51 0 L51 713 Z M77 908 L184 908 L252 762 L175 762 L77 908 Z " />
<glyph glyph-name="Eacute" unicode="&#xc9;" horiz-adv-x="398" d="M51 713 L363 713 L363 617 L163 617 L163 418 L323 418 L323 322 L163 322 L163 96 L364 96 L364 0 L51 0 L51 713 Z M241 908 L348 908 L251 762 L174 762 L241 908 Z " />
<glyph glyph-name="Ecircumflex" unicode="&#xca;" horiz-adv-x="398" d="M51 713 L363 713 L363 617 L163 617 L163 418 L323 418 L323 322 L163 322 L163 96 L364 96 L364 0 L51 0 L51 713 Z M177 908 L253 908 L337 762 L253 762 L213 840 L172 762 L92 762 L177 908 Z " />
<glyph glyph-name="Edieresis" unicode="&#xcb;" horiz-adv-x="398" d="M51 713 L363 713 L363 617 L163 617 L163 418 L323 418 L323 322 L163 322 L163 96 L364 96 L364 0 L51 0 L51 713 Z M101 898 L194 898 L194 771 L101 771 L101 898 Z M234 898 L327 898 L327 771 L234 771 L234 898 Z " />
<glyph glyph-name="F" unicode="F" horiz-adv-x="389" d="M51 713 L363 713 L363 617 L163 617 L163 414 L322 414 L322 318 L163 318 L163 0 L51 0 L51 713 Z " />
<glyph glyph-name="G" unicode="G" horiz-adv-x="455" d="M233 -10 Q191 -10 156 1 Q121 12 95.5 34 Q70 56 56 88.5 Q42 121 42 164 L42 550 Q42 591 56 623 Q70 655 95.5 677.5 Q121 700 156 712 Q191 724 232 724 Q271 724 304 713 Q337 702 361 682 Q385 662 399 633 Q413 604 413 567 L413 491 L311 491 L311 557 Q311 591 289.5 610 Q268 629 233 629 Q192 629 173 605.5 Q154 582 154 546 L154 169 Q154 131 174.5 109 Q195 87 233 87 Q274 87 290.5 108 Q307 129 307 161 L307 290 L223 290 L223 376 L414 376 L414 154 Q414 78 366 34 Q318 -10 233 -10 Z " />
<glyph glyph-name="H" unicode="H" horiz-adv-x="475" d="M51 713 L163 713 L163 414 L312 414 L312 713 L424 713 L424 0 L312 0 L312 312 L163 312 L163 0 L51 0 L51 713 Z " />
<glyph glyph-name="I" unicode="I" horiz-adv-x="213" d="M51 713 L163 713 L163 0 L51 0 L51 713 Z " />
<glyph glyph-name="Igrave" unicode="&#xcc;" horiz-adv-x="213" d="M51 713 L163 713 L163 0 L51 0 L51 713 Z M-30 908 L77 908 L145 762 L68 762 L-30 908 Z " />
<glyph glyph-name="Iacute" unicode="&#xcd;" horiz-adv-x="213" d="M51 713 L163 713 L163 0 L51 0 L51 713 Z M134 908 L241 908 L144 762 L67 762 L134 908 Z " />
<glyph glyph-name="Icircumflex" unicode="&#xce;" horiz-adv-x="213" d="M51 713 L163 713 L163 0 L51 0 L51 713 Z M70 908 L146 908 L230 762 L146 762 L106 840 L65 762 L-15 762 L70 908 Z " />
<glyph glyph-name="Idieresis" unicode="&#xcf;" horiz-adv-x="213" d="M51 713 L163 713 L163 0 L51 0 L51 713 Z M-6 898 L87 898 L87 771 L-6 771 L-6 898 Z M127 898 L220 898 L220 771 L127 771 L127 898 Z " />
<glyph glyph-name="J" unicode="J" horiz-adv-x="432" d="M208 -10 Q123 -10 78 33.5 Q33 77 33 161 L33 263 L139 263 L139 161 Q139 132 153 109.5 Q167 87 207 87 Q245 87 259 109.5 Q273 132 273 162 L273 713 L385 713 L385 169 Q385 87 339 38.5 Q293 -10 208 -10 Z " />
<glyph glyph-name="K" unicode="K" horiz-adv-x="454" d="M51 713 L163 713 L163 380 L320 713 L431 713 L298 438 L433 0 L313 0 L216 341 L163 241 L163 0 L51 0 L51 713 Z " />
<glyph glyph-name="L" unicode="L" horiz-adv-x="388" d="M51 713 L163 713 L163 96 L364 96 L364 0 L51 0 L51 713 Z " />
<glyph glyph-name="Lslash" unicode="&#x141;" horiz-adv-x="404" d="M22 338 L67 374 L67 713 L179 713 L179 463 L270 536 L270 443 L179 370 L179 96 L380 96 L380 0 L67 0 L67 281 L22 245 L22 338 Z " />
<glyph glyph-name="M" unicode="M" horiz-adv-x="565" d="M51 713 L190 713 L283 417 L286 417 L381 713 L514 713 L514 0 L415 0 L415 533 L413 533 L321 234 L244 234 L152 533 L150 533 L150 0 L51 0 L51 713 Z " />
<glyph glyph-name="N" unicode="N" horiz-adv-x="485" d="M51 713 L167 713 L334 271 L336 271 L336 713 L435 713 L435 0 L333 0 L152 487 L150 487 L150 0 L51 0 L51 713 Z " />
<glyph glyph-name="Ntilde" unicode="&#xd1;" horiz-adv-x="485" d="M51 713 L167 713 L334 271 L336 271 L336 713 L435 713 L435 0 L333 0 L152 487 L150 487 L150 0 L51 0 L51 713 Z M107 781 Q114 823 135 853.5 Q156 884 193 884 Q208 884 222.5 879.5 Q237 875 251.5 869.5 Q266 864 280.5 859.5 Q295 855 309 855 Q324 855 331.5 864 Q339 873 345 892 L397 879 Q394 859 387 840 Q380 821 369.5 807 Q359 793 344 784.5 Q329 776 311 776 Q297 776 281.5 780.5 Q266 785 251 790.5 Q236 796 222 800.5 Q208 805 197 805 Q182 805 175 797 Q168 789 163 769 L107 781 Z " />
<glyph glyph-name="O" unicode="O" horiz-adv-x="465" d="M232 -10 Q147 -10 94.5 35 Q42 80 42 172 L42 542 Q42 587 56.5 621 Q71 655 96.5 678 Q122 701 157 712.5 Q192 724 233 724 Q273 724 307.5 713.5 Q342 703 367.5 681.5 Q393 660 408 626.5 Q423 593 423 548 L423 175 Q423 128 408 93.5 Q393 59 367.5 36 Q342 13 307 1.5 Q272 -10 232 -10 Z M233 89 Q273 89 292 112.5 Q311 136 311 170 L311 550 Q311 585 290 606 Q269 627 232 627 Q194 627 174 604.5 Q154 582 154 548 L154 170 Q154 136 174 112.5 Q194 89 233 89 Z " />
<glyph glyph-name="Ograve" unicode="&#xd2;" horiz-adv-x="465" d="M232 -10 Q147 -10 94.5 35 Q42 80 42 172 L42 542 Q42 587 56.5 621 Q71 655 96.5 678 Q122 701 157 712.5 Q192 724 233 724 Q273 724 307.5 713.5 Q342 703 367.5 681.5 Q393 660 408 626.5 Q423 593 423 548 L423 175 Q423 128 408 93.5 Q393 59 367.5 36 Q342 13 307 1.5 Q272 -10 232 -10 Z M233 89 Q273 89 292 112.5 Q311 136 311 170 L311 550 Q311 585 290 606 Q269 627 232 627 Q194 627 174 604.5 Q154 582 154 548 L154 170 Q154 136 174 112.5 Q194 89 233 89 Z M95 908 L202 908 L270 762 L193 762 L95 908 Z " />
<glyph glyph-name="Oacute" unicode="&#xd3;" horiz-adv-x="465" d="M232 -10 Q147 -10 94.5 35 Q42 80 42 172 L42 542 Q42 587 56.5 621 Q71 655 96.5 678 Q122 701 157 712.5 Q192 724 233 724 Q273 724 307.5 713.5 Q342 703 367.5 681.5 Q393 660 408 626.5 Q423 593 423 548 L423 175 Q423 128 408 93.5 Q393 59 367.5 36 Q342 13 307 1.5 Q272 -10 232 -10 Z M233 89 Q273 89 292 112.5 Q311 136 311 170 L311 550 Q311 585 290 606 Q269 627 232 627 Q194 627 174 604.5 Q154 582 154 548 L154 170 Q154 136 174 112.5 Q194 89 233 89 Z M259 908 L366 908 L269 762 L192 762 L259 908 Z " />
<glyph glyph-name="Ocircumflex" unicode="&#xd4;" horiz-adv-x="465" d="M232 -10 Q147 -10 94.5 35 Q42 80 42 172 L42 542 Q42 587 56.5 621 Q71 655 96.5 678 Q122 701 157 712.5 Q192 724 233 724 Q273 724 307.5 713.5 Q342 703 367.5 681.5 Q393 660 408 626.5 Q423 593 423 548 L423 175 Q423 128 408 93.5 Q393 59 367.5 36 Q342 13 307 1.5 Q272 -10 232 -10 Z M233 89 Q273 89 292 112.5 Q311 136 311 170 L311 550 Q311 585 290 606 Q269 627 232 627 Q194 627 174 604.5 Q154 582 154 548 L154 170 Q154 136 174 112.5 Q194 89 233 89 Z M195 908 L271 908 L355 762 L271 762 L231 840 L190 762 L110 762 L195 908 Z " />
<glyph glyph-name="Otilde" unicode="&#xd5;" horiz-adv-x="465" d="M232 -10 Q147 -10 94.5 35 Q42 80 42 172 L42 542 Q42 587 56.5 621 Q71 655 96.5 678 Q122 701 157 712.5 Q192 724 233 724 Q273 724 307.5 713.5 Q342 703 367.5 681.5 Q393 660 408 626.5 Q423 593 423 548 L423 175 Q423 128 408 93.5 Q393 59 367.5 36 Q342 13 307 1.5 Q272 -10 232 -10 Z M233 89 Q273 89 292 112.5 Q311 136 311 170 L311 550 Q311 585 290 606 Q269 627 232 627 Q194 627 174 604.5 Q154 582 154 548 L154 170 Q154 136 174 112.5 Q194 89 233 89 Z M87 781 Q94 823 115 853.5 Q136 884 173 884 Q188 884 202.5 879.5 Q217 875 231.5 869.5 Q246 864 260.5 859.5 Q275 855 289 855 Q304 855 311.5 864 Q319 873 325 892 L377 879 Q374 859 367 840 Q360 821 349.5 807 Q339 793 324 784.5 Q309 776 291 776 Q277 776 261.5 780.5 Q246 785 231 790.5 Q216 796 202 800.5 Q188 805 177 805 Q162 805 155 797 Q148 789 143 769 L87 781 Z " />
<glyph glyph-name="Odieresis" unicode="&#xd6;" horiz-adv-x="465" d="M232 -10 Q147 -10 94.5 35 Q42 80 42 172 L42 542 Q42 587 56.5 621 Q71 655 96.5 678 Q122 701 157 712.5 Q192 724 233 724 Q273 724 307.5 713.5 Q342 703 367.5 681.5 Q393 660 408 626.5 Q423 593 423 548 L423 175 Q423 128 408 93.5 Q393 59 367.5 36 Q342 13 307 1.5 Q272 -10 232 -10 Z M233 89 Q273 89 292 112.5 Q311 136 311 170 L311 550 Q311 585 290 606 Q269 627 232 627 Q194 627 174 604.5 Q154 582 154 548 L154 170 Q154 136 174 112.5 Q194 89 233 89 Z M119 898 L212 898 L212 771 L119 771 L119 898 Z M252 898 L345 898 L345 771 L252 771 L252 898 Z " />
<glyph glyph-name="Oslash" unicode="&#xd8;" horiz-adv-x="465" d="M47 -31 L80 50 Q62 73 52 103 Q42 133 42 172 L42 542 Q42 587 56.5 621 Q71 655 96.5 678 Q122 701 157 712.5 Q192 724 233 724 Q263 724 290 718 Q317 712 340 699 L364 758 L432 732 L397 647 Q409 627 416 602.5 Q423 578 423 548 L423 175 Q423 128 408 93.5 Q393 59 367.5 36 Q342 13 307 1.5 Q272 -10 232 -10 Q180 -10 138 7 L113 -56 L47 -31 Z M154 235 L298 595 Q277 627 232 627 Q194 627 174 604.5 Q154 582 154 548 L154 235 Z M233 89 Q273 89 292 112.5 Q311 136 311 170 L311 433 L179 107 Q200 89 233 89 Z " />
<glyph glyph-name="OE" unicode="&#x152;" horiz-adv-x="650" d="M216 0 Q131 0 86.5 44 Q42 88 42 182 L42 531 Q42 621 90 667 Q138 713 219 713 L615 713 L615 617 L414 617 L414 417 L575 417 L575 321 L414 321 L414 96 L616 96 L616 0 L216 0 Z M302 96 L302 617 L232 617 Q194 617 174 594 Q154 571 154 536 L154 180 Q154 145 174.5 120.5 Q195 96 234 96 L302 96 Z " />
<glyph glyph-name="P" unicode="P" horiz-adv-x="443" d="M51 713 L238 713 Q326 713 366.5 657 Q407 601 407 501 Q407 397 365 335.5 Q323 274 232 274 L163 274 L163 0 L51 0 L51 713 Z M217 366 Q258 366 276.5 399.5 Q295 433 295 499 Q295 556 279 587.5 Q263 619 221 619 L163 619 L163 366 L217 366 Z " />
<glyph glyph-name="Thorn" unicode="&#xde;" horiz-adv-x="446" d="M51 713 L163 713 L163 578 L241 578 Q329 578 369.5 523.5 Q410 469 410 371 Q410 269 368 209 Q326 149 235 149 L163 149 L163 0 L51 0 L51 713 Z M219 238 Q261 238 279.5 270.5 Q298 303 298 368 Q298 425 282 456 Q266 487 224 487 L163 487 L163 238 L219 238 Z " />
<glyph glyph-name="Q" unicode="Q" horiz-adv-x="466" d="M274 -5 Q254 -10 232 -10 Q147 -10 94.5 35 Q42 80 42 172 L42 542 Q42 587 56.5 621 Q71 655 97 678 Q123 701 158 712.5 Q193 724 234 724 Q274 724 308.5 713.5 Q343 703 368.5 681.5 Q394 660 409 626.5 Q424 593 424 548 L424 175 Q424 134 411.5 103 Q399 72 377 52 L449 4 L380 -83 L274 -5 Z M234 89 Q273 89 292.5 112.5 Q312 136 312 170 L312 550 Q312 585 290.5 606 Q269 627 232 627 Q194 627 174 604.5 Q154 582 154 548 L154 170 Q154 136 174.5 112.5 Q195 89 234 89 Z " />
<glyph glyph-name="R" unicode="R" horiz-adv-x="454" d="M51 713 L232 713 Q320 713 366.5 662 Q413 611 413 509 Q413 432 389 385.5 Q365 339 323 322 L421 0 L305 0 L222 297 L163 297 L163 0 L51 0 L51 713 Z M225 381 Q301 381 301 500 Q301 552 283.5 585.5 Q266 619 223 619 L163 619 L163 381 L225 381 Z " />
<glyph glyph-name="S" unicode="S" horiz-adv-x="414" d="M210 -10 Q129 -10 82.5 40.5 Q36 91 31 182 L135 185 Q137 165 141.5 146 Q146 127 154.5 112.5 Q163 98 177 89.5 Q191 81 211 81 Q229 81 241.5 88.5 Q254 96 261.5 107.5 Q269 119 272.5 134 Q276 149 276 164 Q276 196 259.5 224.5 Q243 253 213 285 L136 366 Q94 411 68 455 Q42 499 42 553 Q42 588 52.5 619 Q63 650 84.5 673.5 Q106 697 138 710.5 Q170 724 213 724 Q245 724 273.5 715 Q302 706 324 684.5 Q346 663 360 627.5 Q374 592 377 540 L278 537 Q273 582 257.5 608 Q242 634 208 634 Q177 634 161 614.5 Q145 595 145 561 Q145 546 151.5 531 Q158 516 168 501.5 Q178 487 191 472.5 Q204 458 217 444 L286 372 Q334 324 359 276 Q384 228 384 170 Q384 131 372.5 98 Q361 65 338.5 41 Q316 17 283.5 3.5 Q251 -10 210 -10 Z " />
<glyph glyph-name="Scaron" unicode="&#x160;" horiz-adv-x="414" d="M210 -10 Q129 -10 82.5 40.5 Q36 91 31 182 L135 185 Q137 165 141.5 146 Q146 127 154.5 112.5 Q163 98 177 89.5 Q191 81 211 81 Q229 81 241.5 88.5 Q254 96 261.5 107.5 Q269 119 272.5 134 Q276 149 276 164 Q276 196 259.5 224.5 Q243 253 213 285 L136 366 Q94 411 68 455 Q42 499 42 553 Q42 588 52.5 619 Q63 650 84.5 673.5 Q106 697 138 710.5 Q170 724 213 724 Q245 724 273.5 715 Q302 706 324 684.5 Q346 663 360 627.5 Q374 592 377 540 L278 537 Q273 582 257.5 608 Q242 634 208 634 Q177 634 161 614.5 Q145 595 145 561 Q145 546 151.5 531 Q158 516 168 501.5 Q178 487 191 472.5 Q204 458 217 444 L286 372 Q334 324 359 276 Q384 228 384 170 Q384 131 372.5 98 Q361 65 338.5 41 Q316 17 283.5 3.5 Q251 -10 210 -10 Z M85 908 L168 908 L209 829 L249 908 L329 908 L245 762 L168 762 L85 908 Z " />
<glyph glyph-name="T" unicode="T" horiz-adv-x="422" d="M156 618 L20 618 L20 713 L402 713 L402 618 L268 618 L268 0 L156 0 L156 618 Z " />
<glyph glyph-name="U" unicode="U" horiz-adv-x="464" d="M229 -10 Q147 -10 97 33 Q47 76 47 167 L47 713 L159 713 L159 173 Q159 129 181.5 109 Q204 89 236 89 Q275 89 292.5 112 Q310 135 310 172 L310 713 L417 713 L417 172 Q417 129 403 95 Q389 61 364 38 Q339 15 304.5 2.5 Q270 -10 229 -10 Z " />
<glyph glyph-name="Ugrave" unicode="&#xd9;" horiz-adv-x="464" d="M229 -10 Q147 -10 97 33 Q47 76 47 167 L47 713 L159 713 L159 173 Q159 129 181.5 109 Q204 89 236 89 Q275 89 292.5 112 Q310 135 310 172 L310 713 L417 713 L417 172 Q417 129 403 95 Q389 61 364 38 Q339 15 304.5 2.5 Q270 -10 229 -10 Z M100 908 L207 908 L275 762 L198 762 L100 908 Z " />
<glyph glyph-name="Uacute" unicode="&#xda;" horiz-adv-x="464" d="M229 -10 Q147 -10 97 33 Q47 76 47 167 L47 713 L159 713 L159 173 Q159 129 181.5 109 Q204 89 236 89 Q275 89 292.5 112 Q310 135 310 172 L310 713 L417 713 L417 172 Q417 129 403 95 Q389 61 364 38 Q339 15 304.5 2.5 Q270 -10 229 -10 Z M266 908 L373 908 L276 762 L199 762 L266 908 Z " />
<glyph glyph-name="Ucircumflex" unicode="&#xdb;" horiz-adv-x="464" d="M229 -10 Q147 -10 97 33 Q47 76 47 167 L47 713 L159 713 L159 173 Q159 129 181.5 109 Q204 89 236 89 Q275 89 292.5 112 Q310 135 310 172 L310 713 L417 713 L417 172 Q417 129 403 95 Q389 61 364 38 Q339 15 304.5 2.5 Q270 -10 229 -10 Z M199 908 L275 908 L359 762 L275 762 L235 840 L194 762 L114 762 L199 908 Z " />
<glyph glyph-name="Udieresis" unicode="&#xdc;" horiz-adv-x="464" d="M229 -10 Q147 -10 97 33 Q47 76 47 167 L47 713 L159 713 L159 173 Q159 129 181.5 109 Q204 89 236 89 Q275 89 292.5 112 Q310 135 310 172 L310 713 L417 713 L417 172 Q417 129 403 95 Q389 61 364 38 Q339 15 304.5 2.5 Q270 -10 229 -10 Z M119 898 L212 898 L212 771 L119 771 L119 898 Z M252 898 L345 898 L345 771 L252 771 L252 898 Z " />
<glyph glyph-name="V" unicode="V" horiz-adv-x="417" d="M13 713 L124 713 L212 205 L215 205 L303 713 L404 713 L268 -4 L151 -4 L13 713 Z " />
<glyph glyph-name="W" unicode="W" horiz-adv-x="622" d="M19 713 L129 713 L191 240 L193 240 L264 713 L373 713 L442 241 L444 241 L504 713 L604 713 L496 -4 L392 -4 L315 496 L312 496 L235 -4 L129 -4 L19 713 Z " />
<glyph glyph-name="X" unicode="X" horiz-adv-x="422" d="M150 360 L20 713 L137 713 L217 485 L297 713 L402 713 L272 368 L410 0 L294 0 L206 242 L120 0 L13 0 L150 360 Z " />
<glyph glyph-name="Y" unicode="Y" horiz-adv-x="420" d="M155 292 L11 713 L129 713 L217 426 L302 713 L409 713 L267 291 L267 0 L155 0 L155 292 Z " />
<glyph glyph-name="Yacute" unicode="&#xdd;" horiz-adv-x="420" d="M155 292 L11 713 L129 713 L217 426 L302 713 L409 713 L267 291 L267 0 L155 0 L155 292 Z M242 908 L349 908 L252 762 L175 762 L242 908 Z " />
<glyph glyph-name="Ydieresis" unicode="&#x178;" horiz-adv-x="420" d="M155 292 L11 713 L129 713 L217 426 L302 713 L409 713 L267 291 L267 0 L155 0 L155 292 Z M97 898 L190 898 L190 771 L97 771 L97 898 Z M230 898 L323 898 L323 771 L230 771 L230 898 Z " />
<glyph glyph-name="Z" unicode="Z" horiz-adv-x="385" d="M31 75 L234 617 L35 617 L35 713 L358 713 L358 631 L157 96 L354 96 L354 0 L31 0 L31 75 Z " />
<glyph glyph-name="Zcaron" unicode="&#x17d;" horiz-adv-x="385" d="M31 75 L234 617 L35 617 L35 713 L358 713 L358 631 L157 96 L354 96 L354 0 L31 0 L31 75 Z M72 908 L155 908 L196 829 L236 908 L316 908 L232 762 L155 762 L72 908 Z " />
<glyph glyph-name="a" unicode="a" horiz-adv-x="388" d="M145 -10 Q98 -10 65 28.5 Q32 67 32 150 Q32 191 45.5 223 Q59 255 82.5 277 Q106 299 137.5 310.5 Q169 322 204 322 L238 322 L238 410 Q238 432 226 445 Q214 458 188 458 Q162 458 149.5 444.5 Q137 431 137 411 L137 363 L43 363 L43 412 Q43 470 85 505.5 Q127 541 196 541 Q263 541 302.5 505.5 Q342 470 342 408 L342 125 Q342 109 342.5 90 Q343 71 344 53 Q345 35 346 20.5 Q347 6 347 0 L251 0 Q251 5 249 20 L246 55 L243 55 Q235 37 223.5 24.5 Q212 12 198.5 4.5 Q185 -3 171 -6.5 Q157 -10 145 -10 Z M183 72 Q206 72 222 92.5 Q238 113 238 142 L238 257 L206 257 Q178 257 157 235 Q136 213 136 162 Q136 114 149 93 Q162 72 183 72 Z " />
<glyph glyph-name="agrave" unicode="&#xe0;" horiz-adv-x="388" d="M145 -10 Q98 -10 65 28.5 Q32 67 32 150 Q32 191 45.5 223 Q59 255 82.5 277 Q106 299 137.5 310.5 Q169 322 204 322 L238 322 L238 410 Q238 432 226 445 Q214 458 188 458 Q162 458 149.5 444.5 Q137 431 137 411 L137 363 L43 363 L43 412 Q43 470 85 505.5 Q127 541 196 541 Q263 541 302.5 505.5 Q342 470 342 408 L342 125 Q342 109 342.5 90 Q343 71 344 53 Q345 35 346 20.5 Q347 6 347 0 L251 0 Q251 5 249 20 L246 55 L243 55 Q235 37 223.5 24.5 Q212 12 198.5 4.5 Q185 -3 171 -6.5 Q157 -10 145 -10 Z M183 72 Q206 72 222 92.5 Q238 113 238 142 L238 257 L206 257 Q178 257 157 235 Q136 213 136 162 Q136 114 149 93 Q162 72 183 72 Z M65 724 L172 724 L240 578 L163 578 L65 724 Z " />
<glyph glyph-name="aacute" unicode="&#xe1;" horiz-adv-x="388" d="M145 -10 Q98 -10 65 28.5 Q32 67 32 150 Q32 191 45.5 223 Q59 255 82.5 277 Q106 299 137.5 310.5 Q169 322 204 322 L238 322 L238 410 Q238 432 226 445 Q214 458 188 458 Q162 458 149.5 444.5 Q137 431 137 411 L137 363 L43 363 L43 412 Q43 470 85 505.5 Q127 541 196 541 Q263 541 302.5 505.5 Q342 470 342 408 L342 125 Q342 109 342.5 90 Q343 71 344 53 Q345 35 346 20.5 Q347 6 347 0 L251 0 Q251 5 249 20 L246 55 L243 55 Q235 37 223.5 24.5 Q212 12 198.5 4.5 Q185 -3 171 -6.5 Q157 -10 145 -10 Z M183 72 Q206 72 222 92.5 Q238 113 238 142 L238 257 L206 257 Q178 257 157 235 Q136 213 136 162 Q136 114 149 93 Q162 72 183 72 Z M214 724 L321 724 L223 578 L146 578 L214 724 Z " />
<glyph glyph-name="acircumflex" unicode="&#xe2;" horiz-adv-x="388" d="M145 -10 Q98 -10 65 28.5 Q32 67 32 150 Q32 191 45.5 223 Q59 255 82.5 277 Q106 299 137.5 310.5 Q169 322 204 322 L238 322 L238 410 Q238 432 226 445 Q214 458 188 458 Q162 458 149.5 444.5 Q137 431 137 411 L137 363 L43 363 L43 412 Q43 470 85 505.5 Q127 541 196 541 Q263 541 302.5 505.5 Q342 470 342 408 L342 125 Q342 109 342.5 90 Q343 71 344 53 Q345 35 346 20.5 Q347 6 347 0 L251 0 Q251 5 249 20 L246 55 L243 55 Q235 37 223.5 24.5 Q212 12 198.5 4.5 Q185 -3 171 -6.5 Q157 -10 145 -10 Z M183 72 Q206 72 222 92.5 Q238 113 238 142 L238 257 L206 257 Q178 257 157 235 Q136 213 136 162 Q136 114 149 93 Q162 72 183 72 Z M154 726 L231 726 L314 578 L231 578 L190 659 L150 578 L70 578 L154 726 Z " />
<glyph glyph-name="atilde" unicode="&#xe3;" horiz-adv-x="388" d="M145 -10 Q98 -10 65 28.5 Q32 67 32 150 Q32 191 45.5 223 Q59 255 82.5 277 Q106 299 137.5 310.5 Q169 322 204 322 L238 322 L238 410 Q238 432 226 445 Q214 458 188 458 Q162 458 149.5 444.5 Q137 431 137 411 L137 363 L43 363 L43 412 Q43 470 85 505.5 Q127 541 196 541 Q263 541 302.5 505.5 Q342 470 342 408 L342 125 Q342 109 342.5 90 Q343 71 344 53 Q345 35 346 20.5 Q347 6 347 0 L251 0 Q251 5 249 20 L246 55 L243 55 Q235 37 223.5 24.5 Q212 12 198.5 4.5 Q185 -3 171 -6.5 Q157 -10 145 -10 Z M183 72 Q206 72 222 92.5 Q238 113 238 142 L238 257 L206 257 Q178 257 157 235 Q136 213 136 162 Q136 114 149 93 Q162 72 183 72 Z M49 598 Q55 640 76.5 670.5 Q98 701 134 701 Q149 701 164 696.5 Q179 692 193.5 686.5 Q208 681 222.5 676.5 Q237 672 251 672 Q265 672 272.5 681.5 Q280 691 286 709 L338 696 Q335 676 328.5 657.5 Q322 639 311 625 Q300 611 285.5 602.5 Q271 594 252 594 Q238 594 222.5 598.5 Q207 603 192 608.5 Q177 614 163.5 618.5 Q150 623 138 623 Q124 623 116.5 615 Q109 607 104 586 L49 598 Z " />
<glyph glyph-name="adieresis" unicode="&#xe4;" horiz-adv-x="388" d="M145 -10 Q98 -10 65 28.5 Q32 67 32 150 Q32 191 45.5 223 Q59 255 82.5 277 Q106 299 137.5 310.5 Q169 322 204 322 L238 322 L238 410 Q238 432 226 445 Q214 458 188 458 Q162 458 149.5 444.5 Q137 431 137 411 L137 363 L43 363 L43 412 Q43 470 85 505.5 Q127 541 196 541 Q263 541 302.5 505.5 Q342 470 342 408 L342 125 Q342 109 342.5 90 Q343 71 344 53 Q345 35 346 20.5 Q347 6 347 0 L251 0 Q251 5 249 20 L246 55 L243 55 Q235 37 223.5 24.5 Q212 12 198.5 4.5 Q185 -3 171 -6.5 Q157 -10 145 -10 Z M183 72 Q206 72 222 92.5 Q238 113 238 142 L238 257 L206 257 Q178 257 157 235 Q136 213 136 162 Q136 114 149 93 Q162 72 183 72 Z M80 713 L173 713 L173 586 L80 586 L80 713 Z M213 713 L306 713 L306 586 L213 586 L213 713 Z " />
<glyph glyph-name="aring" unicode="&#xe5;" horiz-adv-x="388" d="M145 -10 Q98 -10 65 28.5 Q32 67 32 150 Q32 191 45.5 223 Q59 255 82.5 277 Q106 299 137.5 310.5 Q169 322 204 322 L238 322 L238 410 Q238 432 226 445 Q214 458 188 458 Q162 458 149.5 444.5 Q137 431 137 411 L137 363 L43 363 L43 412 Q43 470 85 505.5 Q127 541 196 541 Q263 541 302.5 505.5 Q342 470 342 408 L342 125 Q342 109 342.5 90 Q343 71 344 53 Q345 35 346 20.5 Q347 6 347 0 L251 0 Q251 5 249 20 L246 55 L243 55 Q235 37 223.5 24.5 Q212 12 198.5 4.5 Q185 -3 171 -6.5 Q157 -10 145 -10 Z M183 72 Q206 72 222 92.5 Q238 113 238 142 L238 257 L206 257 Q178 257 157 235 Q136 213 136 162 Q136 114 149 93 Q162 72 183 72 Z M193 573 Q153 573 129 597.5 Q105 622 105 659 Q105 697 130 723.5 Q155 750 194 750 Q235 750 258.5 725.5 Q282 701 282 663 Q282 644 275 627.5 Q268 611 256 599 Q244 587 228 580 Q212 573 193 573 Z M194 615 Q214 615 225.5 628 Q237 641 237 661 Q237 681 226 694.5 Q215 708 193 708 Q173 708 162.5 695 Q152 682 152 661 Q152 640 164 627.5 Q176 615 194 615 Z " />
<glyph glyph-name="ae" unicode="&#xe6;" horiz-adv-x="579" d="M146 -10 Q122 -10 101.5 -0.5 Q81 9 65.5 28.5 Q50 48 41 78 Q32 108 32 150 Q32 191 45.5 223 Q59 255 82.5 277 Q106 299 137.5 310.5 Q169 322 204 322 L239 322 L239 410 Q239 432 226.5 445 Q214 458 188 458 Q162 458 149.5 444.5 Q137 431 137 411 L137 363 L43 363 L43 412 Q43 470 85 505.5 Q127 541 196 541 Q228 541 253.5 532 Q279 523 296 504 Q315 522 341.5 531.5 Q368 541 398 541 Q467 541 505 501 Q543 461 543 392 L543 230 L343 230 L343 157 Q343 118 361.5 97.5 Q380 77 421 77 Q448 77 473 83.5 Q498 90 517 98 L538 22 Q481 -10 403 -10 Q356 -10 320.5 6 Q285 22 265 56 Q253 35 237 22 Q221 9 204.5 2 Q188 -5 172.5 -7.5 Q157 -10 146 -10 Z M185 72 Q208 72 223.5 90 Q239 108 239 137 L239 257 L206 257 Q178 257 157 235 Q136 213 136 162 Q136 114 150 93 Q164 72 185 72 Z M450 306 L450 396 Q450 420 438 438.5 Q426 457 397 457 Q368 457 355.5 438 Q343 419 343 396 L343 306 L450 306 Z " />
<glyph glyph-name="b" unicode="b" horiz-adv-x="407" d="M239 -10 Q210 -10 185.5 5 Q161 20 147 46 L146 46 L144 0 L50 0 L50 713 L154 713 L154 485 L156 485 Q174 515 201 528 Q228 541 254 541 Q284 541 305.5 531 Q327 521 340.5 504.5 Q354 488 360.5 466.5 Q367 445 367 422 L367 117 Q367 59 331.5 24.5 Q296 -10 239 -10 Z M215 73 Q237 73 250 87 Q263 101 263 129 L263 399 Q263 423 251 438.5 Q239 454 213 454 Q190 454 172 432.5 Q154 411 154 375 L154 148 Q154 116 172 94.5 Q190 73 215 73 Z " />
<glyph glyph-name="c" unicode="c" horiz-adv-x="378" d="M196 -10 Q127 -10 83.5 28 Q40 66 40 141 L40 386 Q40 424 52.5 453 Q65 482 86.5 501.5 Q108 521 137 531 Q166 541 198 541 Q232 541 259.5 531 Q287 521 305.5 503.5 Q324 486 334 462 Q344 438 344 410 L344 359 L252 359 L252 404 Q252 424 240 439.5 Q228 455 200 455 Q171 455 157.5 437 Q144 419 144 394 L144 138 Q144 112 157 93 Q170 74 199 74 Q230 74 241 92.5 Q252 111 252 129 L252 172 L344 172 L344 123 Q344 60 304.5 25 Q265 -10 196 -10 Z " />
<glyph glyph-name="ccedilla" unicode="&#xe7;" horiz-adv-x="378" d="M200 -170 Q184 -170 163 -168 Q142 -166 121 -160 L121 -108 Q162 -119 195 -119 Q231 -119 231 -96 Q231 -83 219.5 -78.5 Q208 -74 191 -72 L157 -70 L173 -9 Q113 -3 76.5 34.5 Q40 72 40 141 L40 386 Q40 424 52.5 453 Q65 482 86.5 501.5 Q108 521 137 531 Q166 541 198 541 Q232 541 259.5 531 Q287 521 305.5 503.5 Q324 486 334 462 Q344 438 344 410 L344 359 L252 359 L252 404 Q252 424 240 439.5 Q228 455 200 455 Q171 455 157.5 437 Q144 419 144 394 L144 138 Q144 112 157 93 Q170 74 199 74 Q230 74 241 92.5 Q252 111 252 129 L252 172 L344 172 L344 123 Q344 65 310.5 31 Q277 -3 218 -9 L212 -32 Q227 -32 243.5 -34.5 Q260 -37 273.5 -44 Q287 -51 296 -62.5 Q305 -74 305 -93 Q305 -129 273.5 -149.5 Q242 -170 200 -170 Z " />
<glyph glyph-name="d" unicode="d" horiz-adv-x="408" d="M155 -10 Q125 -10 103 0 Q81 10 67 27 Q53 44 46.5 66 Q40 88 40 113 L40 418 Q40 471 73 506 Q106 541 161 541 Q188 541 212 529.5 Q236 518 253 493 L254 493 L254 713 L358 713 L358 0 L263 0 L260 55 L257 55 Q239 21 210 5.5 Q181 -10 155 -10 Z M194 77 Q220 77 237.5 100.5 Q255 124 255 158 L255 384 Q255 416 236 437.5 Q217 459 194 459 Q172 459 158 444.5 Q144 430 144 399 L144 134 Q144 109 156 93 Q168 77 194 77 Z " />
<glyph glyph-name="eth" unicode="&#xf0;" horiz-adv-x="395" d="M49 634 L115 649 L77 713 L195 713 L219 671 L300 687 L318 629 L252 614 L338 464 Q346 449 352.5 428 Q359 407 359 383 L359 144 Q359 105 347 76 Q335 47 313.5 28 Q292 9 262.5 -0.5 Q233 -10 199 -10 Q130 -10 85 27 Q40 64 40 142 L40 379 Q40 445 77 486.5 Q114 528 176 528 L187 528 L149 592 L67 574 L49 634 Z M200 75 Q233 75 244 93.5 Q255 112 255 137 L255 385 Q255 411 242.5 428.5 Q230 446 201 446 Q172 446 158 428 Q144 410 144 384 L144 134 Q144 110 157.5 92.5 Q171 75 200 75 Z " />
<glyph glyph-name="e" unicode="e" horiz-adv-x="381" d="M203 -10 Q130 -10 85 28 Q40 66 40 145 L40 380 Q40 419 52 449 Q64 479 85.5 499.5 Q107 520 136 530.5 Q165 541 199 541 Q270 541 307.5 500 Q345 459 345 391 L345 230 L144 230 L144 157 Q144 77 223 77 Q249 77 274.5 83 Q300 89 319 97 L339 21 Q280 -10 203 -10 Z M251 306 L251 396 Q251 419 239 438 Q227 457 198 457 Q169 457 156.5 437.5 Q144 418 144 395 L144 306 L251 306 Z " />
<glyph glyph-name="egrave" unicode="&#xe8;" horiz-adv-x="381" d="M203 -10 Q130 -10 85 28 Q40 66 40 145 L40 380 Q40 419 52 449 Q64 479 85.5 499.5 Q107 520 136 530.5 Q165 541 199 541 Q270 541 307.5 500 Q345 459 345 391 L345 230 L144 230 L144 157 Q144 77 223 77 Q249 77 274.5 83 Q300 89 319 97 L339 21 Q280 -10 203 -10 Z M251 306 L251 396 Q251 419 239 438 Q227 457 198 457 Q169 457 156.5 437.5 Q144 418 144 395 L144 306 L251 306 Z M75 724 L182 724 L250 578 L173 578 L75 724 Z " />
<glyph glyph-name="eacute" unicode="&#xe9;" horiz-adv-x="381" d="M203 -10 Q130 -10 85 28 Q40 66 40 145 L40 380 Q40 419 52 449 Q64 479 85.5 499.5 Q107 520 136 530.5 Q165 541 199 541 Q270 541 307.5 500 Q345 459 345 391 L345 230 L144 230 L144 157 Q144 77 223 77 Q249 77 274.5 83 Q300 89 319 97 L339 21 Q280 -10 203 -10 Z M251 306 L251 396 Q251 419 239 438 Q227 457 198 457 Q169 457 156.5 437.5 Q144 418 144 395 L144 306 L251 306 Z M224 724 L331 724 L233 578 L156 578 L224 724 Z " />
<glyph glyph-name="ecircumflex" unicode="&#xea;" horiz-adv-x="381" d="M203 -10 Q130 -10 85 28 Q40 66 40 145 L40 380 Q40 419 52 449 Q64 479 85.5 499.5 Q107 520 136 530.5 Q165 541 199 541 Q270 541 307.5 500 Q345 459 345 391 L345 230 L144 230 L144 157 Q144 77 223 77 Q249 77 274.5 83 Q300 89 319 97 L339 21 Q280 -10 203 -10 Z M251 306 L251 396 Q251 419 239 438 Q227 457 198 457 Q169 457 156.5 437.5 Q144 418 144 395 L144 306 L251 306 Z M167 726 L244 726 L327 578 L244 578 L203 659 L163 578 L83 578 L167 726 Z " />
<glyph glyph-name="edieresis" unicode="&#xeb;" horiz-adv-x="381" d="M203 -10 Q130 -10 85 28 Q40 66 40 145 L40 380 Q40 419 52 449 Q64 479 85.5 499.5 Q107 520 136 530.5 Q165 541 199 541 Q270 541 307.5 500 Q345 459 345 391 L345 230 L144 230 L144 157 Q144 77 223 77 Q249 77 274.5 83 Q300 89 319 97 L339 21 Q280 -10 203 -10 Z M251 306 L251 396 Q251 419 239 438 Q227 457 198 457 Q169 457 156.5 437.5 Q144 418 144 395 L144 306 L251 306 Z M87 713 L180 713 L180 586 L87 586 L87 713 Z M220 713 L313 713 L313 586 L220 586 L220 713 Z " />
<glyph glyph-name="f" unicode="f" horiz-adv-x="276" d="M81 445 L31 445 L31 526 L81 526 L81 609 Q81 661 113 690.5 Q145 720 198 720 Q212 720 228.5 719 Q245 718 260 713 L260 631 Q251 633 242 633.5 Q233 634 221 634 Q206 634 195.5 623.5 Q185 613 185 592 L185 526 L247 526 L247 445 L185 445 L185 0 L81 0 L81 445 Z " />
<glyph glyph-name="fi" unicode="&#xfb01;" horiz-adv-x="480" d="M81 449 L31 449 L31 530 L81 530 L81 609 Q81 661 113 690.5 Q145 720 198 720 Q212 720 228.5 719 Q245 718 260 713 L260 631 Q251 633 242 633.5 Q233 634 221 634 Q206 634 195.5 623.5 Q185 613 185 592 L185 530 L430 530 L430 0 L326 0 L326 449 L185 449 L185 0 L81 0 L81 449 Z M326 713 L430 713 L430 586 L326 586 L326 713 Z " />
<glyph glyph-name="fl" unicode="&#xfb02;" horiz-adv-x="486" d="M403 -10 Q351 -10 328 16 Q305 42 305 84 L305 713 L409 713 L409 115 Q409 103 415.5 94.5 Q422 86 439 86 Q445 86 451 86.5 Q457 87 465 88 L465 1 Q451 -5 435 -7.5 Q419 -10 403 -10 Z M79 445 L29 445 L29 526 L79 526 L79 609 Q79 661 111 690.5 Q143 720 196 720 Q210 720 226.5 719 Q243 718 258 713 L258 631 Q249 633 240 633.5 Q231 634 219 634 Q204 634 193.5 623.5 Q183 613 183 592 L183 526 L245 526 L245 445 L183 445 L183 0 L79 0 L79 445 Z " />
<glyph glyph-name="g" unicode="g" horiz-adv-x="407" d="M183 -170 Q142 -170 110.5 -163.5 Q79 -157 50 -144 L77 -63 Q105 -74 128 -79 Q151 -84 177 -84 Q217 -84 235 -65 Q253 -46 253 -8 L253 80 L251 80 Q235 48 207.5 32 Q180 16 154 16 Q125 16 103.5 25.5 Q82 35 68 51.5 Q54 68 47 90 Q40 112 40 137 L40 412 Q40 471 74.5 506 Q109 541 163 541 Q189 541 216.5 527.5 Q244 514 258 486 L259 486 L260 532 L357 532 L357 -1 Q357 -86 311 -128 Q265 -170 183 -170 Z M194 99 Q218 99 235.5 120.5 Q253 142 253 174 L253 384 Q253 417 234 438 Q215 459 192 459 Q170 459 157 443.5 Q144 428 144 399 L144 156 Q144 133 155.5 116 Q167 99 194 99 Z " />
<glyph glyph-name="h" unicode="h" horiz-adv-x="412" d="M50 713 L154 713 L154 478 L155 478 Q192 541 263 541 Q307 541 336.5 513 Q366 485 366 437 L366 0 L262 0 L262 396 Q262 421 251 437 Q240 453 214 453 Q201 453 190 446 Q179 439 171 428 Q163 417 158.5 402 Q154 387 154 372 L154 0 L50 0 L50 713 Z " />
<glyph glyph-name="i" unicode="i" horiz-adv-x="204" d="M50 530 L154 530 L154 0 L50 0 L50 530 Z M50 713 L154 713 L154 586 L50 586 L50 713 Z " />
<glyph glyph-name="igrave" unicode="&#xec;" horiz-adv-x="204" d="M50 530 L154 530 L154 0 L50 0 L50 530 Z M-34 724 L73 724 L141 578 L64 578 L-34 724 Z " />
<glyph glyph-name="iacute" unicode="&#xed;" horiz-adv-x="204" d="M50 530 L154 530 L154 0 L50 0 L50 530 Z M130 724 L237 724 L139 578 L62 578 L130 724 Z " />
<glyph glyph-name="icircumflex" unicode="&#xee;" horiz-adv-x="204" d="M50 530 L154 530 L154 0 L50 0 L50 530 Z M66 726 L143 726 L226 578 L143 578 L102 659 L62 578 L-18 578 L66 726 Z " />
<glyph glyph-name="idieresis" unicode="&#xef;" horiz-adv-x="204" d="M50 530 L154 530 L154 0 L50 0 L50 530 Z M-9 713 L84 713 L84 586 L-9 586 L-9 713 Z M124 713 L217 713 L217 586 L124 586 L124 713 Z " />
<glyph glyph-name="dotlessi" unicode="&#x131;" horiz-adv-x="204" d="M50 530 L154 530 L154 0 L50 0 L50 530 Z " />
<glyph glyph-name="j" unicode="j" horiz-adv-x="208" d="M46 -170 Q32 -170 21 -169 Q10 -168 -2 -166 L-2 -84 Q0 -85 8 -85 L19 -85 Q39 -85 46.5 -73.5 Q54 -62 54 -41 L54 530 L158 530 L158 -55 Q158 -109 128 -139.5 Q98 -170 46 -170 Z M54 713 L158 713 L158 586 L54 586 L54 713 Z " />
<glyph glyph-name="k" unicode="k" horiz-adv-x="388" d="M50 713 L154 713 L154 302 L267 530 L372 530 L276 348 L372 0 L262 0 L196 259 L154 184 L154 0 L50 0 L50 713 Z " />
<glyph glyph-name="l" unicode="l" horiz-adv-x="227" d="M146 -10 Q94 -10 71 16 Q48 42 48 84 L48 713 L152 713 L152 115 Q152 103 158.5 94.5 Q165 86 182 86 Q188 86 194 86.5 Q200 87 208 88 L208 1 Q194 -5 178 -7.5 Q162 -10 146 -10 Z " />
<glyph glyph-name="lslash" unicode="&#x142;" horiz-adv-x="237" d="M20 350 L58 387 L58 713 L162 713 L162 489 L211 537 L211 443 L162 395 L162 118 Q162 106 168.5 97.5 Q175 89 192 89 Q198 89 204 89.5 Q210 90 218 91 L218 4 Q204 -2 188 -4.5 Q172 -7 156 -7 Q104 -7 81 19 Q58 45 58 87 L58 293 L20 256 L20 350 Z " />
<glyph glyph-name="m" unicode="m" horiz-adv-x="625" d="M50 530 L151 530 L151 477 L153 477 Q170 509 199 525 Q228 541 263 541 Q298 541 323.5 524.5 Q349 508 359 476 L361 476 Q382 509 411.5 525 Q441 541 476 541 Q519 541 549 513 Q579 485 579 437 L579 0 L475 0 L475 396 Q475 421 463.5 437 Q452 453 426 453 Q400 453 383.5 430.5 Q367 408 366 378 L366 0 L262 0 L262 397 Q262 421 251 437 Q240 453 214 453 Q188 453 171 428.5 Q154 404 154 373 L154 0 L50 0 L50 530 Z " />
<glyph glyph-name="n" unicode="n" horiz-adv-x="412" d="M50 530 L151 530 L151 478 L153 478 Q171 509 199.5 525 Q228 541 263 541 Q307 541 336.5 513 Q366 485 366 437 L366 0 L262 0 L262 396 Q262 421 251 437 Q240 453 214 453 Q188 453 171 428.5 Q154 404 154 373 L154 0 L50 0 L50 530 Z " />
<glyph glyph-name="ntilde" unicode="&#xf1;" horiz-adv-x="412" d="M50 530 L151 530 L151 478 L153 478 Q171 509 199.5 525 Q228 541 263 541 Q307 541 336.5 513 Q366 485 366 437 L366 0 L262 0 L262 396 Q262 421 251 437 Q240 453 214 453 Q188 453 171 428.5 Q154 404 154 373 L154 0 L50 0 L50 530 Z M76 598 Q82 640 103.5 670.5 Q125 701 161 701 Q176 701 191 696.5 Q206 692 220.5 686.5 Q235 681 249.5 676.5 Q264 672 278 672 Q292 672 299.5 681.5 Q307 691 313 709 L365 696 Q362 676 355.5 657.5 Q349 639 338 625 Q327 611 312.5 602.5 Q298 594 279 594 Q265 594 249.5 598.5 Q234 603 219 608.5 Q204 614 190.5 618.5 Q177 623 165 623 Q151 623 143.5 615 Q136 607 131 586 L76 598 Z " />
<glyph glyph-name="o" unicode="o" horiz-adv-x="400" d="M200 -10 Q130 -10 85 28 Q40 66 40 143 L40 387 Q40 424 53 453 Q66 482 87.5 501.5 Q109 521 138 531 Q167 541 200 541 Q233 541 262 532 Q291 523 312.5 504 Q334 485 347 457 Q360 429 360 391 L360 145 Q360 105 347.5 76 Q335 47 313 28 Q291 9 262 -0.5 Q233 -10 200 -10 Z M201 75 Q233 75 244.5 94.5 Q256 114 256 138 L256 393 Q256 419 242 437 Q228 455 199 455 Q170 455 157 436.5 Q144 418 144 392 L144 138 Q144 112 157.5 93.5 Q171 75 201 75 Z " />
<glyph glyph-name="ograve" unicode="&#xf2;" horiz-adv-x="400" d="M200 -10 Q130 -10 85 28 Q40 66 40 143 L40 387 Q40 424 53 453 Q66 482 87.5 501.5 Q109 521 138 531 Q167 541 200 541 Q233 541 262 532 Q291 523 312.5 504 Q334 485 347 457 Q360 429 360 391 L360 145 Q360 105 347.5 76 Q335 47 313 28 Q291 9 262 -0.5 Q233 -10 200 -10 Z M201 75 Q233 75 244.5 94.5 Q256 114 256 138 L256 393 Q256 419 242 437 Q228 455 199 455 Q170 455 157 436.5 Q144 418 144 392 L144 138 Q144 112 157.5 93.5 Q171 75 201 75 Z M67 724 L174 724 L242 578 L165 578 L67 724 Z " />
<glyph glyph-name="oacute" unicode="&#xf3;" horiz-adv-x="400" d="M200 -10 Q130 -10 85 28 Q40 66 40 143 L40 387 Q40 424 53 453 Q66 482 87.5 501.5 Q109 521 138 531 Q167 541 200 541 Q233 541 262 532 Q291 523 312.5 504 Q334 485 347 457 Q360 429 360 391 L360 145 Q360 105 347.5 76 Q335 47 313 28 Q291 9 262 -0.5 Q233 -10 200 -10 Z M201 75 Q233 75 244.5 94.5 Q256 114 256 138 L256 393 Q256 419 242 437 Q228 455 199 455 Q170 455 157 436.5 Q144 418 144 392 L144 138 Q144 112 157.5 93.5 Q171 75 201 75 Z M225 724 L332 724 L234 578 L157 578 L225 724 Z " />
<glyph glyph-name="ocircumflex" unicode="&#xf4;" horiz-adv-x="400" d="M200 -10 Q130 -10 85 28 Q40 66 40 143 L40 387 Q40 424 53 453 Q66 482 87.5 501.5 Q109 521 138 531 Q167 541 200 541 Q233 541 262 532 Q291 523 312.5 504 Q334 485 347 457 Q360 429 360 391 L360 145 Q360 105 347.5 76 Q335 47 313 28 Q291 9 262 -0.5 Q233 -10 200 -10 Z M201 75 Q233 75 244.5 94.5 Q256 114 256 138 L256 393 Q256 419 242 437 Q228 455 199 455 Q170 455 157 436.5 Q144 418 144 392 L144 138 Q144 112 157.5 93.5 Q171 75 201 75 Z M166 726 L243 726 L326 578 L243 578 L202 659 L162 578 L82 578 L166 726 Z " />
<glyph glyph-name="otilde" unicode="&#xf5;" horiz-adv-x="400" d="M200 -10 Q130 -10 85 28 Q40 66 40 143 L40 387 Q40 424 53 453 Q66 482 87.5 501.5 Q109 521 138 531 Q167 541 200 541 Q233 541 262 532 Q291 523 312.5 504 Q334 485 347 457 Q360 429 360 391 L360 145 Q360 105 347.5 76 Q335 47 313 28 Q291 9 262 -0.5 Q233 -10 200 -10 Z M201 75 Q233 75 244.5 94.5 Q256 114 256 138 L256 393 Q256 419 242 437 Q228 455 199 455 Q170 455 157 436.5 Q144 418 144 392 L144 138 Q144 112 157.5 93.5 Q171 75 201 75 Z M57 598 Q63 640 84.5 670.5 Q106 701 142 701 Q157 701 172 696.5 Q187 692 201.5 686.5 Q216 681 230.5 676.5 Q245 672 259 672 Q273 672 280.5 681.5 Q288 691 294 709 L346 696 Q343 676 336.5 657.5 Q330 639 319 625 Q308 611 293.5 602.5 Q279 594 260 594 Q246 594 230.5 598.5 Q215 603 200 608.5 Q185 614 171.5 618.5 Q158 623 146 623 Q132 623 124.5 615 Q117 607 112 586 L57 598 Z " />
<glyph glyph-name="odieresis" unicode="&#xf6;" horiz-adv-x="400" d="M200 -10 Q130 -10 85 28 Q40 66 40 143 L40 387 Q40 424 53 453 Q66 482 87.5 501.5 Q109 521 138 531 Q167 541 200 541 Q233 541 262 532 Q291 523 312.5 504 Q334 485 347 457 Q360 429 360 391 L360 145 Q360 105 347.5 76 Q335 47 313 28 Q291 9 262 -0.5 Q233 -10 200 -10 Z M201 75 Q233 75 244.5 94.5 Q256 114 256 138 L256 393 Q256 419 242 437 Q228 455 199 455 Q170 455 157 436.5 Q144 418 144 392 L144 138 Q144 112 157.5 93.5 Q171 75 201 75 Z M88 713 L181 713 L181 586 L88 586 L88 713 Z M221 713 L314 713 L314 586 L221 586 L221 713 Z " />
<glyph glyph-name="oslash" unicode="&#xf8;" horiz-adv-x="400" d="M52 -34 L78 34 Q60 53 50 80 Q40 107 40 143 L40 387 Q40 424 53 453 Q66 482 87.5 501.5 Q109 521 138 531 Q167 541 200 541 Q238 541 270 529 L295 593 L357 570 L326 490 Q342 472 351 447.5 Q360 423 360 391 L360 145 Q360 105 347.5 76 Q335 47 313 28 Q291 9 262 -0.5 Q233 -10 200 -10 Q183 -10 166.5 -7.5 Q150 -5 136 0 L115 -55 L52 -34 Z M144 203 L236 442 Q221 455 199 455 Q170 455 157 436.5 Q144 418 144 392 L144 203 Z M201 75 Q233 75 244.5 94.5 Q256 114 256 138 L256 309 L168 83 Q182 75 201 75 Z " />
<glyph glyph-name="oe" unicode="&#x153;" horiz-adv-x="596" d="M200 -10 Q130 -10 85 28 Q40 66 40 143 L40 387 Q40 424 53 453 Q66 482 87.5 501.5 Q109 521 138 531 Q167 541 200 541 Q232 541 260.5 531.5 Q289 522 309 503 Q329 521 356 531 Q383 541 415 541 Q486 541 523 500 Q560 459 560 391 L560 230 L360 230 L360 157 Q360 76 438 76 Q465 76 490 82.5 Q515 89 534 97 L555 21 Q524 5 492.5 -2.5 Q461 -10 420 -10 Q385 -10 356.5 -1.5 Q328 7 308 27 Q287 8 259 -1 Q231 -10 200 -10 Z M201 75 Q233 75 244.5 94.5 Q256 114 256 138 L256 393 Q256 419 242 437 Q228 455 199 455 Q170 455 157 436.5 Q144 418 144 392 L144 138 Q144 112 157.5 93.5 Q171 75 201 75 Z M467 306 L467 396 Q467 420 455 438.5 Q443 457 414 457 Q385 457 372.5 438 Q360 419 360 396 L360 306 L467 306 Z " />
<glyph glyph-name="p" unicode="p" horiz-adv-x="407" d="M50 530 L151 530 L151 478 L153 478 Q170 509 199.5 525 Q229 541 256 541 Q286 541 307 531 Q328 521 341.5 504.5 Q355 488 361 465.5 Q367 443 367 418 L367 114 Q367 61 335.5 25.5 Q304 -10 245 -10 Q220 -10 195 2 Q170 14 156 39 L154 39 L154 -162 L50 -162 L50 530 Z M214 75 Q237 75 250 88.5 Q263 102 263 131 L263 400 Q263 424 251 439.5 Q239 455 214 455 Q188 455 171 434.5 Q154 414 154 377 L154 145 Q154 113 171 94 Q188 75 214 75 Z " />
<glyph glyph-name="thorn" unicode="&#xfe;" horiz-adv-x="407" d="M50 713 L154 713 L154 478 L155 478 Q172 510 202 525.5 Q232 541 258 541 Q288 541 308.5 531 Q329 521 342 504.5 Q355 488 361 465.5 Q367 443 367 418 L367 113 Q367 60 334.5 25 Q302 -10 245 -10 Q220 -10 195 2 Q170 14 156 39 L154 39 L154 -162 L50 -162 L50 713 Z M211 74 Q234 74 248.5 88 Q263 102 263 131 L263 400 Q263 424 250 440.5 Q237 457 212 457 Q188 457 171 438 Q154 419 154 382 L154 140 Q154 108 171 91 Q188 74 211 74 Z " />
<glyph glyph-name="q" unicode="q" horiz-adv-x="408" d="M254 45 L252 45 Q232 15 206.5 2.5 Q181 -10 155 -10 Q125 -10 103.5 -0.5 Q82 9 68 25.5 Q54 42 47 63.5 Q40 85 40 110 L40 415 Q40 469 74.5 505 Q109 541 167 541 Q193 541 220 527.5 Q247 514 262 485 L263 485 L264 531 L358 531 L358 -162 L254 -162 L254 45 Z M195 76 Q218 76 236 98 Q254 120 254 152 L254 384 Q254 417 235.5 438.5 Q217 460 193 460 Q170 460 157 443.5 Q144 427 144 399 L144 135 Q144 109 157 92.5 Q170 76 195 76 Z " />
<glyph glyph-name="r" unicode="r" horiz-adv-x="295" d="M50 530 L153 530 L153 470 L154 470 Q183 535 245 535 Q252 535 261 534 Q270 533 277 531 L277 433 Q266 435 253.5 435.5 Q241 436 234 436 Q202 436 178.5 419 Q155 402 154 364 L154 0 L50 0 L50 530 Z " />
<glyph glyph-name="s" unicode="s" horiz-adv-x="348" d="M177 -10 Q148 -10 122 -1.5 Q96 7 76 25 Q56 43 43.5 71 Q31 99 28 137 L125 139 Q128 107 140.5 89 Q153 71 179 71 Q199 71 211 83 Q223 95 223 121 Q223 142 205 166 Q187 190 161 216 L118 260 Q85 294 63 327 Q41 360 41 405 Q41 430 49 454 Q57 478 74 497.5 Q91 517 118 529 Q145 541 183 541 Q240 541 278.5 507 Q317 473 321 396 L231 393 Q227 428 215.5 445 Q204 462 179 462 Q157 462 146.5 449 Q136 436 136 416 Q136 398 149 380 Q162 362 185 339 L238 285 Q278 243 299.5 208 Q321 173 321 129 Q321 103 312.5 78 Q304 53 286.5 33.5 Q269 14 242 2 Q215 -10 177 -10 Z " />
<glyph glyph-name="scaron" unicode="&#x161;" horiz-adv-x="348" d="M177 -10 Q148 -10 122 -1.5 Q96 7 76 25 Q56 43 43.5 71 Q31 99 28 137 L125 139 Q128 107 140.5 89 Q153 71 179 71 Q199 71 211 83 Q223 95 223 121 Q223 142 205 166 Q187 190 161 216 L118 260 Q85 294 63 327 Q41 360 41 405 Q41 430 49 454 Q57 478 74 497.5 Q91 517 118 529 Q145 541 183 541 Q240 541 278.5 507 Q317 473 321 396 L231 393 Q227 428 215.5 445 Q204 462 179 462 Q157 462 146.5 449 Q136 436 136 416 Q136 398 149 380 Q162 362 185 339 L238 285 Q278 243 299.5 208 Q321 173 321 129 Q321 103 312.5 78 Q304 53 286.5 33.5 Q269 14 242 2 Q215 -10 177 -10 Z M58 728 L142 728 L182 647 L223 728 L304 728 L219 579 L142 579 L58 728 Z " />
<glyph glyph-name="germandbls" unicode="&#xdf;" horiz-adv-x="457" d="M298 -6 Q274 -6 252.5 -3 Q231 0 214 7 L227 89 Q239 85 251.5 82.5 Q264 80 275 80 Q291 80 301.5 88 Q312 96 318 108 Q324 120 326 135 Q328 150 328 165 Q328 220 300.5 260.5 Q273 301 235 318 L235 399 L245 399 Q258 412 269.5 430.5 Q281 449 289 469 Q297 489 301.5 509 Q306 529 306 547 Q306 583 290.5 609.5 Q275 636 245 636 Q213 636 198.5 610.5 Q184 585 184 551 L184 0 L80 0 L80 445 L31 445 L31 526 L80 526 L80 549 Q80 586 90.5 618 Q101 650 122.5 672.5 Q144 695 176.5 708 Q209 721 253 721 Q293 721 322.5 708.5 Q352 696 372 674.5 Q392 653 402 624 Q412 595 412 562 Q412 511 392.5 458.5 Q373 406 332 373 L332 371 Q380 333 406 277 Q432 221 432 164 Q432 130 424 99.5 Q416 69 399.5 45.5 Q383 22 357.5 8 Q332 -6 298 -6 Z " />
<glyph glyph-name="t" unicode="t" horiz-adv-x="282" d="M180 -7 Q159 -7 140.5 -2 Q122 3 108 14.5 Q94 26 85.5 43.5 Q77 61 77 87 L77 443 L27 443 L27 526 L77 526 L77 646 L181 646 L181 526 L259 526 L259 443 L181 443 L181 118 Q181 84 212 84 Q235 84 255 89 L255 6 Q220 -7 180 -7 Z " />
<glyph glyph-name="u" unicode="u" horiz-adv-x="412" d="M148 -10 Q105 -10 75.5 18 Q46 46 46 95 L46 530 L150 530 L150 134 Q150 109 161 93.5 Q172 78 198 78 Q225 78 241.5 102 Q258 126 258 158 L258 530 L362 530 L362 0 L261 0 L261 55 L260 55 Q241 23 212 6.5 Q183 -10 148 -10 Z " />
<glyph glyph-name="ugrave" unicode="&#xf9;" horiz-adv-x="412" d="M148 -10 Q105 -10 75.5 18 Q46 46 46 95 L46 530 L150 530 L150 134 Q150 109 161 93.5 Q172 78 198 78 Q225 78 241.5 102 Q258 126 258 158 L258 530 L362 530 L362 0 L261 0 L261 55 L260 55 Q241 23 212 6.5 Q183 -10 148 -10 Z M70 724 L177 724 L245 578 L168 578 L70 724 Z " />
<glyph glyph-name="uacute" unicode="&#xfa;" horiz-adv-x="412" d="M148 -10 Q105 -10 75.5 18 Q46 46 46 95 L46 530 L150 530 L150 134 Q150 109 161 93.5 Q172 78 198 78 Q225 78 241.5 102 Q258 126 258 158 L258 530 L362 530 L362 0 L261 0 L261 55 L260 55 Q241 23 212 6.5 Q183 -10 148 -10 Z M233 724 L340 724 L242 578 L165 578 L233 724 Z " />
<glyph glyph-name="ucircumflex" unicode="&#xfb;" horiz-adv-x="412" d="M148 -10 Q105 -10 75.5 18 Q46 46 46 95 L46 530 L150 530 L150 134 Q150 109 161 93.5 Q172 78 198 78 Q225 78 241.5 102 Q258 126 258 158 L258 530 L362 530 L362 0 L261 0 L261 55 L260 55 Q241 23 212 6.5 Q183 -10 148 -10 Z M171 726 L248 726 L331 578 L248 578 L207 659 L167 578 L87 578 L171 726 Z " />
<glyph glyph-name="udieresis" unicode="&#xfc;" horiz-adv-x="412" d="M148 -10 Q105 -10 75.5 18 Q46 46 46 95 L46 530 L150 530 L150 134 Q150 109 161 93.5 Q172 78 198 78 Q225 78 241.5 102 Q258 126 258 158 L258 530 L362 530 L362 0 L261 0 L261 55 L260 55 Q241 23 212 6.5 Q183 -10 148 -10 Z M92 713 L185 713 L185 586 L92 586 L92 713 Z M225 713 L318 713 L318 586 L225 586 L225 713 Z " />
<glyph glyph-name="v" unicode="v" horiz-adv-x="362" d="M11 530 L121 530 L185 165 L188 165 L255 530 L351 530 L235 -2 L128 -2 L11 530 Z " />
<glyph glyph-name="w" unicode="w" horiz-adv-x="544" d="M19 530 L127 530 L174 202 L177 202 L232 530 L330 530 L383 202 L387 202 L435 530 L531 530 L431 -1 L340 -1 L278 350 L275 350 L212 -1 L118 -1 L19 530 Z " />
<glyph glyph-name="x" unicode="x" horiz-adv-x="361" d="M124 270 L16 530 L125 530 L188 365 L250 530 L344 530 L238 275 L352 0 L243 0 L174 177 L104 0 L9 0 L124 270 Z " />
<glyph glyph-name="y" unicode="y" horiz-adv-x="363" d="M96 -170 Q60 -170 33 -163 L43 -80 Q55 -82 65.5 -84 Q76 -86 85 -86 Q101 -86 112 -78.5 Q123 -71 128 -50 L141 7 L12 530 L120 530 L192 182 L194 182 L257 530 L352 530 L225 -37 Q210 -106 178.5 -138 Q147 -170 96 -170 Z " />
<glyph glyph-name="yacute" unicode="&#xfd;" horiz-adv-x="363" d="M96 -170 Q60 -170 33 -163 L43 -80 Q55 -82 65.5 -84 Q76 -86 85 -86 Q101 -86 112 -78.5 Q123 -71 128 -50 L141 7 L12 530 L120 530 L192 182 L194 182 L257 530 L352 530 L225 -37 Q210 -106 178.5 -138 Q147 -170 96 -170 Z M220 724 L327 724 L229 578 L152 578 L220 724 Z " />
<glyph glyph-name="ydieresis" unicode="&#xff;" horiz-adv-x="363" d="M96 -170 Q60 -170 33 -163 L43 -80 Q55 -82 65.5 -84 Q76 -86 85 -86 Q101 -86 112 -78.5 Q123 -71 128 -50 L141 7 L12 530 L120 530 L192 182 L194 182 L257 530 L352 530 L225 -37 Q210 -106 178.5 -138 Q147 -170 96 -170 Z M76 713 L169 713 L169 586 L76 586 L76 713 Z M209 713 L302 713 L302 586 L209 586 L209 713 Z " />
<glyph glyph-name="z" unicode="z" horiz-adv-x="330" d="M28 73 L187 443 L32 443 L32 530 L304 530 L303 451 L148 87 L304 87 L304 0 L28 0 L28 73 Z " />
<glyph glyph-name="zcaron" unicode="&#x17e;" horiz-adv-x="330" d="M28 73 L187 443 L32 443 L32 530 L304 530 L303 451 L148 87 L304 87 L304 0 L28 0 L28 73 Z M46 728 L130 728 L170 647 L211 728 L292 728 L207 579 L130 579 L46 728 Z " />
<glyph glyph-name="grave" unicode="&#x60;" horiz-adv-x="400" d="M112 724 L219 724 L287 578 L210 578 L112 724 Z " />
<glyph glyph-name="acute" unicode="&#xb4;" horiz-adv-x="400" d="M180 724 L287 724 L189 578 L112 578 L180 724 Z " />
<glyph glyph-name="circumflex" unicode="&#x2c6;" horiz-adv-x="400" d="M162 726 L239 726 L322 578 L239 578 L198 659 L158 578 L78 578 L162 726 Z " />
<glyph glyph-name="dieresis" unicode="&#xa8;" horiz-adv-x="400" d="M87 713 L180 713 L180 586 L87 586 L87 713 Z M220 713 L313 713 L313 586 L220 586 L220 713 Z " />
<glyph glyph-name="macron" unicode="&#xaf;" horiz-adv-x="400" d="M92 675 L307 675 L307 598 L92 598 L92 675 Z " />
<glyph glyph-name="cedilla" unicode="&#xb8;" horiz-adv-x="400" d="M190 -170 Q174 -170 153 -168 Q132 -166 111 -160 L111 -108 Q152 -119 185 -119 Q221 -119 221 -96 Q221 -83 209.5 -78.5 Q198 -74 181 -72 L147 -70 L168 13 L213 13 L202 -32 Q217 -32 233.5 -34.5 Q250 -37 263.5 -44 Q277 -51 286 -62.5 Q295 -74 295 -93 Q295 -129 263.5 -149.5 Q232 -170 190 -170 Z " />
<glyph glyph-name="caron" unicode="&#x2c7;" horiz-adv-x="400" d="M77 728 L161 728 L201 647 L242 728 L323 728 L238 579 L161 579 L77 728 Z " />
<glyph glyph-name="breve" unicode="&#x2d8;" horiz-adv-x="400" d="M201 578 Q141 578 107 616 Q73 654 72 723 L143 723 Q145 707 148 692.5 Q151 678 158 666.5 Q165 655 176 648.5 Q187 642 204 642 Q232 642 244.5 665 Q257 688 258 723 L327 723 Q325 651 289 614.5 Q253 578 201 578 Z " />
<glyph glyph-name="dotaccent" unicode="&#x2d9;" horiz-adv-x="400" d="M147 713 L251 713 L251 586 L147 586 L147 713 Z " />
<glyph glyph-name="ring" unicode="&#x2da;" horiz-adv-x="400" d="M199 573 Q159 573 135 597.5 Q111 622 111 659 Q111 697 136 723.5 Q161 750 200 750 Q241 750 264.5 725.5 Q288 701 288 663 Q288 644 281 627.5 Q274 611 262 599 Q250 587 234 580 Q218 573 199 573 Z M200 615 Q220 615 231.5 628 Q243 641 243 661 Q243 681 232 694.5 Q221 708 199 708 Q179 708 168.5 695 Q158 682 158 661 Q158 640 170 627.5 Q182 615 200 615 Z " />
<glyph glyph-name="ogonek" unicode="&#x2db;" horiz-adv-x="400" d="M205 -170 Q164 -170 137.5 -150.5 Q111 -131 111 -88 Q111 -65 120 -46.5 Q129 -28 144 -14 Q159 0 177 10.5 Q195 21 213 28 L246 1 Q220 -12 199 -28.5 Q178 -45 178 -73 Q178 -90 188 -99 Q198 -108 214 -108 Q229 -108 240.5 -103.5 Q252 -99 263 -93 L289 -144 Q273 -155 250.5 -162.5 Q228 -170 205 -170 Z " />
<glyph glyph-name="tilde" unicode="&#x2dc;" horiz-adv-x="400" d="M55 598 Q61 640 82.5 670.5 Q104 701 140 701 Q155 701 170 696.5 Q185 692 199.5 686.5 Q214 681 228.5 676.5 Q243 672 257 672 Q271 672 278.5 681.5 Q286 691 292 709 L344 696 Q341 676 334.5 657.5 Q328 639 317 625 Q306 611 291.5 602.5 Q277 594 258 594 Q244 594 228.5 598.5 Q213 603 198 608.5 Q183 614 169.5 618.5 Q156 623 144 623 Q130 623 122.5 615 Q115 607 110 586 L55 598 Z " />
<glyph glyph-name="hungarumlaut" unicode="&#x2dd;" horiz-adv-x="400" d="M100 724 L200 724 L129 578 L52 578 L100 724 Z M247 724 L347 724 L259 578 L182 578 L247 724 Z " />
<glyph glyph-name="endash" unicode="&#x2013;" horiz-adv-x="365" d="M0 339 L365 339 L365 268 L0 268 L0 339 Z " />
<glyph glyph-name="emdash" unicode="&#x2014;" horiz-adv-x="624" d="M0 339 L624 339 L624 268 L0 268 L0 339 Z " />
<glyph glyph-name="guilsinglleft" unicode="&#x2039;" horiz-adv-x="220" d="M24 274 L132 427 L189 394 L131 275 L191 155 L134 123 L24 274 Z " />
<glyph glyph-name="guilsinglright" unicode="&#x203a;" horiz-adv-x="221" d="M26 157 L84 276 L24 395 L82 427 L192 276 L83 123 L26 157 Z " />
<glyph glyph-name="guillemotleft" unicode="&#xab;" horiz-adv-x="379" d="M20 274 L129 427 L185 394 L127 275 L188 155 L130 123 L20 274 Z M181 274 L289 424 L345 390 L288 275 L348 158 L290 126 L181 274 Z " />
<glyph glyph-name="guillemotright" unicode="&#xbb;" horiz-adv-x="379" d="M22 160 L79 276 L20 392 L78 424 L187 276 L79 126 L22 160 Z M182 157 L240 276 L180 395 L238 427 L348 276 L239 123 L182 157 Z " />
<glyph glyph-name="parenleft" unicode="&#x28;" horiz-adv-x="220" d="M149 -170 Q124 -127 104.5 -72 Q85 -17 71.5 42.5 Q58 102 51 162.5 Q44 223 44 279 Q44 337 51 397 Q58 457 71.5 514.5 Q85 572 104.5 625 Q124 678 149 723 L210 718 Q192 660 178.5 611 Q165 562 155.5 512 Q146 462 141 406 Q136 350 136 278 Q136 159 156.5 50 Q177 -59 210 -165 L149 -170 Z " />
<glyph glyph-name="parenright" unicode="&#x29;" horiz-adv-x="220" d="M10 -165 Q43 -59 63.5 50 Q84 159 84 278 Q84 350 79 406 Q74 462 64.5 512 Q55 562 41.5 611 Q28 660 10 718 L71 723 Q96 678 115.5 625 Q135 572 148.5 514.5 Q162 457 169 397 Q176 337 176 279 Q176 223 169 162.5 Q162 102 148.5 42.5 Q135 -17 115.5 -72 Q96 -127 71 -170 L10 -165 Z " />
<glyph glyph-name="bracketleft" unicode="&#x5b;" horiz-adv-x="225" d="M54 713 L205 713 L205 653 L141 653 L141 -103 L205 -103 L205 -162 L54 -162 L54 713 Z " />
<glyph glyph-name="bracketright" unicode="&#x5d;" horiz-adv-x="225" d="M20 -103 L84 -103 L84 653 L20 653 L20 713 L172 713 L172 -162 L20 -162 L20 -103 Z " />
<glyph glyph-name="at" unicode="&#x40;" horiz-adv-x="700" d="M372 -76 Q315 -76 265 -62.5 Q215 -49 175 -23 Q110 20 73 96.5 Q36 173 36 285 Q36 378 61.5 454 Q87 530 133 583 Q179 636 242.5 665 Q306 694 382 694 Q437 694 488.5 676 Q540 658 579.5 620.5 Q619 583 642.5 525.5 Q666 468 666 389 Q666 326 649 273 Q632 220 603.5 180.5 Q575 141 538 116.5 Q501 92 461 85 L378 85 L386 143 L383 143 Q361 108 332 91.5 Q303 75 275 75 Q230 75 206 100 Q182 125 182 169 Q182 189 185 208 L218 423 Q227 480 264 510.5 Q301 541 349 541 Q374 541 398 529.5 Q422 518 432 492 L434 492 L441 535 L530 535 L472 137 Q502 144 527 167 Q552 190 570.5 223.5 Q589 257 599.5 299.5 Q610 342 610 387 Q610 457 591 507 Q572 557 540 588.5 Q508 620 466 634.5 Q424 649 377 649 Q308 649 254.5 621 Q201 593 164.5 544.5 Q128 496 109.5 429.5 Q91 363 91 286 Q91 189 123 119.5 Q155 50 217 12 Q280 -28 373 -28 Q426 -28 468 -20.5 Q510 -13 555 1 L565 -40 Q527 -57 475.5 -66.5 Q424 -76 372 -76 Z M322 155 Q351 155 371.5 179.5 Q392 204 397 239 L419 391 Q420 395 420 399 L420 407 Q420 436 406.5 451 Q393 466 370 466 Q343 466 327 447.5 Q311 429 306 397 L286 257 Q283 236 281 219.5 Q279 203 279 198 Q279 179 288.5 167 Q298 155 322 155 Z " />
<glyph glyph-name="bar" unicode="&#x7c;" horiz-adv-x="249" d="M90 717 L159 717 L159 -105 L90 -105 L90 717 Z " />
<glyph glyph-name="backslash" unicode="&#x5c;" horiz-adv-x="250" d="M14 716 L85 716 L255 -169 L182 -169 L14 716 Z " />
<glyph glyph-name="slash" unicode="&#x2f;" horiz-adv-x="250" d="M157 717 L228 717 L68 -165 L-6 -165 L157 717 Z " />
<glyph glyph-name="underscore" unicode="&#x5f;" horiz-adv-x="388" d="M0 -55 L388 -55 L388 -128 L0 -128 L0 -55 Z " />
<glyph glyph-name="numbersign" unicode="&#x23;" horiz-adv-x="422" d="M92 189 L23 189 L29 256 L98 256 L121 472 L50 472 L56 538 L126 538 L145 713 L206 713 L188 538 L273 538 L291 713 L352 713 L334 538 L403 538 L398 472 L328 472 L306 256 L376 256 L371 189 L300 189 L282 0 L219 0 L238 189 L154 189 L136 0 L74 0 L92 189 Z M245 256 L267 472 L182 472 L161 256 L245 256 Z " />
<glyph glyph-name="dollar" unicode="&#x24;" horiz-adv-x="398" d="M159 7 Q104 16 65.5 56.5 Q27 97 23 176 L126 180 Q131 142 147 117 Q163 92 201 92 Q233 92 248 113.5 Q263 135 263 163 Q263 191 246 222 Q229 253 200 283 L129 357 Q89 399 62.5 441.5 Q36 484 36 535 Q36 595 68 639 Q100 683 163 695 L163 789 L249 789 L249 696 Q297 688 330 651.5 Q363 615 367 534 L274 532 Q269 577 251 596.5 Q233 616 205 616 Q173 616 157 597.5 Q141 579 141 548 Q141 521 162.5 493 Q184 465 209 439 L277 366 Q315 324 341.5 277 Q368 230 368 175 Q368 113 336 68.5 Q304 24 247 11 L247 -85 L159 -85 L159 7 Z " />
<glyph glyph-name="cent" unicode="&#xa2;" horiz-adv-x="377" d="M151 10 Q97 20 66.5 56 Q36 92 36 155 L36 394 Q36 457 68 493.5 Q100 530 151 541 L151 637 L238 637 L238 541 Q289 530 315.5 496 Q342 462 342 415 L342 359 L249 359 L249 411 Q249 431 236.5 447.5 Q224 464 195 464 Q165 464 152.5 445.5 Q140 427 140 401 L140 153 Q140 126 152 106.5 Q164 87 195 87 Q226 87 237.5 105 Q249 123 249 143 L249 197 L342 197 L342 137 Q342 86 315 53.5 Q288 21 238 11 L238 -84 L151 -84 L151 10 Z " />
<glyph glyph-name="sterling" unicode="&#xa3;" horiz-adv-x="441" d="M36 90 L86 90 L86 317 L43 317 L43 395 L86 395 L86 565 Q86 606 99.5 636 Q113 666 136 685.5 Q159 705 189.5 714.5 Q220 724 253 724 Q320 724 360 687.5 Q400 651 400 585 L400 521 L307 521 L307 583 Q307 610 292 623.5 Q277 637 251 637 Q228 637 211.5 623 Q195 609 195 575 L195 395 L323 395 L323 317 L195 317 L195 90 L410 90 L394 0 L36 0 L36 90 Z " />
<glyph glyph-name="yen" unicode="&#xa5;" horiz-adv-x="412" d="M151 241 L40 241 L40 318 L140 318 L8 713 L125 713 L212 428 L297 713 L405 713 L274 318 L374 318 L374 241 L262 241 L262 0 L151 0 L151 241 Z " />
<glyph glyph-name="Euro" unicode="&#x20ac;" horiz-adv-x="469" d="M264 -10 Q223 -10 189 1 Q155 12 130.5 33 Q106 54 92.5 85 Q79 116 79 157 L79 258 L29 258 L29 332 L79 332 L79 386 L29 386 L29 458 L79 458 L79 554 Q79 592 93 623.5 Q107 655 131.5 677.5 Q156 700 190 712 Q224 724 265 724 Q304 724 336 713 Q368 702 391 682 Q414 662 426.5 633 Q439 604 439 567 L439 501 L338 501 L338 561 Q338 594 319 613.5 Q300 633 263 633 Q225 633 208.5 610 Q192 587 192 555 L192 458 L327 458 L327 386 L192 386 L192 332 L327 332 L327 258 L192 258 L192 163 Q192 125 211.5 103.5 Q231 82 267 82 Q304 82 321 103.5 Q338 125 338 157 L338 210 L439 210 L439 153 Q439 115 426 84.5 Q413 54 390 33 Q367 12 335 1 Q303 -10 264 -10 Z " />
<glyph glyph-name="paragraph" unicode="&#xb6;" horiz-adv-x="435" d="M166 234 Q130 242 105 263 Q80 284 64.5 314.5 Q49 345 42 383.5 Q35 422 35 465 Q35 517 45.5 562.5 Q56 608 78 642 Q100 676 133.5 695 Q167 714 214 714 L405 714 L405 653 L360 653 L360 -116 L294 -116 L294 653 L232 653 L232 -116 L166 -116 L166 234 Z " />
<glyph glyph-name="bullet" unicode="&#x2022;" horiz-adv-x="370" d="M186 193 Q159 193 135 203 Q111 213 93.5 231 Q76 249 65.5 272.5 Q55 296 55 323 Q55 350 65.5 373.5 Q76 397 93.5 415 Q111 433 135 443 Q159 453 186 453 Q213 453 236 443 Q259 433 276.5 415 Q294 397 304 373.5 Q314 350 314 323 Q314 296 304 272.5 Q294 249 276.5 231 Q259 213 236 203 Q213 193 186 193 Z " />
<glyph glyph-name="periodcentered" unicode="&#xb7;" horiz-adv-x="182" d="M41 427 L142 427 L142 290 L41 290 L41 427 Z " />
<glyph glyph-name="plus" unicode="&#x2b;" horiz-adv-x="420" d="M174 282 L42 282 L42 356 L174 356 L174 496 L247 496 L247 356 L378 356 L378 282 L247 282 L247 142 L174 142 L174 282 Z " />
<glyph glyph-name="equal" unicode="&#x3d;" horiz-adv-x="420" d="M44 275 L376 275 L376 200 L44 200 L44 275 Z M44 428 L376 428 L376 352 L44 352 L44 428 Z " />
<glyph glyph-name="less" unicode="&#x3c;" horiz-adv-x="420" d="M50 291 L50 348 L337 488 L370 421 L155 320 L175 310 Q191 302 214 291 Q237 280 262.5 268 Q288 256 311 245 Q334 234 350 226.5 Q366 219 370 217 L336 151 L50 291 Z " />
<glyph glyph-name="greater" unicode="&#x3e;" horiz-adv-x="420" d="M50 218 L265 320 L245 330 Q229 338 206 348.5 Q183 359 157.5 371 Q132 383 109 393.5 Q86 404 70 412 L50 422 L83 488 L370 349 L370 291 L83 151 L50 218 Z " />
<glyph glyph-name="percent" unicode="&#x25;" horiz-adv-x="594" d="M144 356 Q97 356 65.5 383 Q34 410 34 461 L34 616 Q34 669 65 696.5 Q96 724 144 724 Q191 724 222.5 696.5 Q254 669 254 617 L254 460 Q254 412 221.5 384 Q189 356 144 356 Z M144 418 Q165 418 174 431 Q183 444 183 459 L183 623 Q183 637 173.5 650 Q164 663 144 663 Q122 663 113.5 650.5 Q105 638 105 623 L105 458 Q105 442 114 430 Q123 418 144 418 Z M411 716 L469 716 L189 -2 L129 -2 L411 716 Z M449 -10 Q403 -10 371 16.5 Q339 43 339 94 L339 245 Q339 297 370 327.5 Q401 358 449 358 Q496 358 528 330 Q560 302 560 250 L560 95 Q560 71 551 51.5 Q542 32 527 18.5 Q512 5 491.5 -2.5 Q471 -10 449 -10 Z M449 51 Q471 51 479 64.5 Q487 78 487 93 L487 256 Q487 270 478 283 Q469 296 449 296 Q429 296 420 283 Q411 270 411 256 L411 92 Q411 76 419.5 63.5 Q428 51 449 51 Z " />
<glyph glyph-name="braceleft" unicode="&#x7b;" horiz-adv-x="232" d="M140 -162 Q105 -162 83.5 -143.5 Q62 -125 62 -80 L62 211 Q62 238 55 251 Q48 264 27 266 L27 329 Q49 334 55.5 344.5 Q62 355 62 376 L62 627 Q62 672 83.5 692.5 Q105 713 141 713 L213 713 L213 653 L167 653 Q149 653 149 630 L149 389 Q149 355 140.5 334 Q132 313 105 302 L105 297 Q134 286 141.5 266.5 Q149 247 149 210 L149 -80 Q149 -94 154 -98.5 Q159 -103 167 -103 L213 -103 L213 -162 L140 -162 Z " />
<glyph glyph-name="braceright" unicode="&#x7d;" horiz-adv-x="232" d="M18 -103 L64 -103 Q72 -103 77 -98.5 Q82 -94 82 -80 L82 210 Q82 247 90 266.5 Q98 286 126 297 L126 302 Q100 313 91 334 Q82 355 82 389 L82 630 Q82 643 77 648 Q72 653 64 653 L18 653 L18 713 L91 713 Q126 713 147.5 692.5 Q169 672 169 627 L169 376 Q169 355 175 344.5 Q181 334 203 329 L203 266 Q183 264 176 251 Q169 238 169 211 L169 -80 Q169 -125 147.5 -143.5 Q126 -162 91 -162 L18 -162 L18 -103 Z " />
<glyph glyph-name="brokenbar" unicode="&#xa6;" horiz-adv-x="249" d="M90 281 L159 281 L159 -105 L90 -105 L90 281 Z M90 717 L159 717 L159 358 L90 358 L90 717 Z " />
<glyph glyph-name="fraction" unicode="&#x2044;" horiz-adv-x="91" d="M166 716 L221 716 L-76 -2 L-132 -2 L166 716 Z " />
<glyph glyph-name="section" unicode="&#xa7;" horiz-adv-x="417" d="M203 -129 Q174 -129 143.5 -122 Q113 -115 88 -97 Q63 -79 47 -48.5 Q31 -18 31 28 L31 68 L127 68 L127 40 Q127 0 147.5 -25 Q168 -50 210 -50 Q230 -50 243.5 -42.5 Q257 -35 265.5 -23 Q274 -11 278 3.5 Q282 18 282 33 Q282 72 260.5 92.5 Q239 113 214 124 Q199 131 182 137.5 Q165 144 154 149 Q130 159 108 172 Q86 185 69.5 203 Q53 221 43.5 245 Q34 269 34 301 Q34 339 53 371 Q72 403 102 428 Q67 453 51.5 483.5 Q36 514 36 561 Q36 595 47 624 Q58 653 80 674.5 Q102 696 134 708 Q166 720 208 720 Q281 720 327 681 Q373 642 373 567 L373 529 L281 529 L281 561 Q281 595 263 617.5 Q245 640 208 640 Q173 640 154 619 Q135 598 135 565 Q135 532 154.5 510.5 Q174 489 197 479 Q217 470 232 463 Q247 456 264 449 Q284 441 305 428.5 Q326 416 343.5 398.5 Q361 381 372 357.5 Q383 334 383 303 Q383 262 365.5 229.5 Q348 197 317 172 Q348 152 367.5 120 Q387 88 387 40 Q387 2 373.5 -29.5 Q360 -61 336 -83 Q312 -105 278 -117 Q244 -129 203 -129 Z M238 218 Q259 229 272 247 Q285 265 285 291 Q285 315 269 331.5 Q253 348 230 359 Q218 364 203 370.5 Q188 377 176 382 Q159 372 144.5 353.5 Q130 335 130 305 Q130 291 136 279.5 Q142 268 151 260 Q160 252 170 246.5 Q180 241 188 238 L238 218 Z " />
<glyph glyph-name="copyright" unicode="&#xa9;" horiz-adv-x="714" d="M359 60 Q293 60 252 95 Q211 130 211 199 L211 469 Q211 536 252.5 573 Q294 610 360 610 Q424 610 462.5 575.5 Q501 541 501 483 L501 401 L415 401 L415 478 Q415 498 403 514 Q391 530 362 530 Q330 530 318 511 Q306 492 306 466 L306 204 Q306 177 318 159 Q330 141 361 141 Q391 141 403 158 Q415 175 415 193 L415 271 L501 271 L501 190 Q501 130 462 95 Q423 60 359 60 Z M357 -53 Q277 -53 217.5 -22.5 Q158 8 118.5 61 Q79 114 59.5 185 Q40 256 40 337 Q40 416 61.5 486.5 Q83 557 123.5 609.5 Q164 662 223 693 Q282 724 357 724 Q436 724 495.5 692.5 Q555 661 595 608 Q635 555 655 485 Q675 415 675 337 Q675 257 654.5 186.5 Q634 116 594 62.5 Q554 9 494.5 -22 Q435 -53 357 -53 Z M358 0 Q413 0 460 23.5 Q507 47 540.5 91 Q574 135 593 197.5 Q612 260 612 337 Q612 415 593 477.5 Q574 540 540.5 583.5 Q507 627 460 650.5 Q413 674 357 674 Q300 674 253.5 650.5 Q207 627 173.5 583 Q140 539 122 477 Q104 415 104 337 Q104 258 123 195.5 Q142 133 175.5 89.5 Q209 46 255.5 23 Q302 0 358 0 Z " />
<glyph glyph-name="registered" unicode="&#xae;" horiz-adv-x="416" d="M209 292 Q167 292 133.5 309 Q100 326 77.5 355.5 Q55 385 43 424.5 Q31 464 31 508 Q31 553 44 592.5 Q57 632 80.5 661 Q104 690 137 707 Q170 724 211 724 Q251 724 284.5 707.5 Q318 691 341 661.5 Q364 632 377 592.5 Q390 553 390 508 Q390 464 377.5 425 Q365 386 341.5 356.5 Q318 327 284.5 309.5 Q251 292 209 292 Z M209 330 Q236 330 260.5 341.5 Q285 353 304.5 375.5 Q324 398 335.5 431.5 Q347 465 347 508 Q347 549 336 582 Q325 615 306 638.5 Q287 662 262 674.5 Q237 687 209 687 Q182 687 157.5 674.5 Q133 662 114.5 639 Q96 616 85 583 Q74 550 74 508 Q74 466 85 433 Q96 400 115 377 Q134 354 158 342 Q182 330 209 330 Z M139 641 L218 641 Q253 641 271.5 620 Q290 599 290 563 Q290 538 280 518.5 Q270 499 252 491 L297 382 L245 382 L206 483 L188 483 L188 382 L139 382 L139 641 Z M210 520 Q242 520 242 560 Q242 577 234 588.5 Q226 600 210 600 L188 600 L188 520 L210 520 Z " />
<glyph glyph-name="trademark" unicode="&#x2122;" horiz-adv-x="497" d="M233 713 L308 713 L346 580 L384 713 L456 713 L456 401 L402 401 L402 612 L366 491 L324 491 L287 612 L287 401 L233 401 L233 713 Z M86 661 L25 661 L25 713 L206 713 L206 661 L145 661 L145 401 L86 401 L86 661 Z " />
<glyph glyph-name="Omega" unicode="&#x2126;" horiz-adv-x="466" d="M39 99 L147 95 L147 103 Q126 122 106 146.5 Q86 171 71 203 Q56 235 46.5 276.5 Q37 318 37 370 L37 510 Q37 615 88 669.5 Q139 724 233 724 Q331 724 380 667.5 Q429 611 429 514 L429 371 Q429 318 418.5 274.5 Q408 231 391.5 197.5 Q375 164 356 140 Q337 116 320 103 L320 95 L427 99 L427 0 L254 0 L254 93 Q266 114 277 138 Q288 162 296 193 Q304 224 308.5 264.5 Q313 305 313 359 L313 527 Q313 570 293 597.5 Q273 625 232 625 Q194 625 173 599 Q152 573 152 522 L152 361 Q152 306 156 266 Q160 226 168 195.5 Q176 165 187 140.5 Q198 116 213 93 L213 0 L39 0 L39 99 Z " />
<glyph glyph-name="Delta" unicode="&#x2206;" horiz-adv-x="479" d="M26 68 L171 715 L316 715 L461 68 L461 0 L26 0 L26 68 Z M340 97 L240 590 L237 590 L140 97 L340 97 Z " />
<glyph glyph-name="mu" unicode="&#xb5;" horiz-adv-x="421" d="M43 529 L148 529 L148 136 Q148 110 161 94 Q174 78 200 78 Q223 78 242.5 97.5 Q262 117 262 155 L262 529 L367 529 L367 157 Q367 133 374 119.5 Q381 106 400 101 L400 -3 Q363 2 336 17.5 Q309 33 300 68 Q289 35 266 12 Q243 -11 204 -11 Q177 -11 151 3.5 Q125 18 117 48 L113 47 L145 -160 L43 -170 L43 529 Z " />
<glyph glyph-name="partialdiff" unicode="&#x2202;" horiz-adv-x="394" d="M199 -10 Q129 -10 84.5 27 Q40 64 40 142 L40 379 Q40 409 48 433 Q56 457 69.5 474 Q83 491 100.5 502.5 Q118 514 136 520 Q150 525 159 526 Q168 527 173 527 L179 527 Q183 527 186 526 L74 713 L192 713 L333 473 Q344 454 351.5 428.5 Q359 403 359 376 L359 144 Q359 105 346.5 76 Q334 47 312.5 28 Q291 9 262 -0.5 Q233 -10 199 -10 Z M200 75 Q232 75 243 93.5 Q254 112 254 137 L254 385 Q254 411 241.5 428.5 Q229 446 201 446 Q172 446 158.5 428 Q145 410 145 384 L145 134 Q145 110 158 92.5 Q171 75 200 75 Z " />
<glyph glyph-name="product" unicode="&#x220f;" horiz-adv-x="506" d="M88 612 L27 612 L27 713 L480 713 L480 612 L421 612 L421 -133 L316 -133 L316 612 L193 612 L193 -133 L88 -133 L88 612 Z " />
<glyph glyph-name="summation" unicode="&#x2211;" horiz-adv-x="395" d="M34 -47 L208 303 L32 631 L32 713 L362 713 L362 614 L170 614 L327 322 L327 288 L165 -34 L362 -34 L362 -133 L34 -133 L34 -47 Z " />
<glyph glyph-name="radical" unicode="&#x221a;" horiz-adv-x="429" d="M24 399 L134 399 L197 46 L198 46 L322 713 L419 713 L244 -133 L142 -133 L24 399 Z " />
<glyph glyph-name="integral" unicode="&#x222b;" horiz-adv-x="313" d="M59 -170 Q31 -170 -1 -162 L6 -81 Q12 -83 21 -83.5 Q30 -84 36 -84 Q56 -84 62.5 -72 Q69 -60 71 -40 L116 607 Q120 657 150.5 690.5 Q181 724 235 724 Q249 724 266 723 Q283 722 298 717 L291 636 Q285 638 272.5 638.5 Q260 639 252 639 Q236 639 226 629 Q216 619 214 599 L169 -51 Q165 -105 138 -137.5 Q111 -170 59 -170 Z " />
<glyph glyph-name="dagger" unicode="&#x2020;" horiz-adv-x="386" d="M150 466 L35 466 L35 545 L150 545 L150 714 L237 714 L237 545 L351 545 L351 466 L237 466 L237 -116 L150 -116 L150 466 Z " />
<glyph glyph-name="daggerdbl" unicode="&#x2021;" horiz-adv-x="386" d="M150 63 L35 63 L35 144 L150 144 L150 466 L35 466 L35 545 L150 545 L150 714 L237 714 L237 545 L351 545 L351 466 L237 466 L237 144 L351 144 L351 63 L237 63 L237 -116 L150 -116 L150 63 Z " />
<glyph glyph-name="florin" unicode="&#x192;" horiz-adv-x="306" d="M62 -170 Q32 -170 9 -164 L14 -81 Q16 -81 24.5 -81.5 Q33 -82 37 -82 Q57 -82 63 -70.5 Q69 -59 71 -38 L103 416 L50 416 L55 500 L108 500 L115 606 Q119 660 151 692 Q183 724 236 724 Q250 724 267.5 722 Q285 720 300 715 L294 634 Q286 636 275 637 Q264 638 256 638 Q240 638 229.5 628 Q219 618 217 598 L210 500 L274 500 L269 416 L206 416 L174 -51 Q170 -106 142.5 -138 Q115 -170 62 -170 Z " />
<glyph glyph-name="lozenge" unicode="&#x25ca;" horiz-adv-x="414" d="M31 337 L31 353 L176 714 L238 714 L383 353 L383 338 L238 -3 L176 -3 L31 337 Z M301 342 L204 588 L115 349 L210 114 L301 342 Z " />
<glyph glyph-name="minus" unicode="&#x2212;" horiz-adv-x="420" d="M47 356 L373 356 L373 282 L47 282 L47 356 Z " />
<glyph glyph-name="infinity" unicode="&#x221e;" horiz-adv-x="628" d="M456 186 Q407 186 372 211 Q337 236 311 268 Q282 236 245.5 212.5 Q209 189 166 189 Q134 189 108.5 199.5 Q83 210 65 228 Q47 246 37.5 270.5 Q28 295 28 323 Q28 353 39 378 Q50 403 69 421.5 Q88 440 113.5 450 Q139 460 169 460 Q214 460 250.5 437 Q287 414 317 379 Q344 406 381 430.5 Q418 455 463 455 Q524 455 562 422 Q600 389 600 329 Q600 298 589.5 271.5 Q579 245 559.5 226 Q540 207 513.5 196.5 Q487 186 456 186 Z M164 251 Q195 251 223 273 Q251 295 277 324 Q268 337 256.5 351 Q245 365 231.5 376 Q218 387 202.5 394 Q187 401 171 401 Q140 401 119 380 Q98 359 98 330 Q98 298 115 274.5 Q132 251 164 251 Z M455 248 Q488 248 509.5 270 Q531 292 531 324 Q531 355 514.5 375.5 Q498 396 462 396 Q436 396 407 373 Q378 350 351 322 Q372 293 397 270.5 Q422 248 455 248 Z " />
<glyph glyph-name="ordfeminine" unicode="&#xaa;" horiz-adv-x="270" d="M99 391 Q70 391 49.5 413 Q29 435 29 485 Q29 534 60.5 559.5 Q92 585 137 585 L156 585 L156 634 Q156 645 149 652.5 Q142 660 128 660 Q113 660 106.5 652.5 Q100 645 100 634 L100 607 L36 607 L36 634 Q36 671 62.5 692.5 Q89 714 133 714 Q177 714 201.5 692.5 Q226 671 226 632 L226 468 Q226 459 226.5 448 Q227 437 227.5 426.5 Q228 416 229 408.5 Q230 401 230 398 L164 398 L161 428 Q150 408 132 399.5 Q114 391 99 391 Z M44 359 L226 359 L226 299 L44 299 L44 359 Z M126 445 Q138 445 147 455 Q156 465 156 479 L156 543 L138 543 Q121 543 109.5 531 Q98 519 98 493 Q98 467 105.5 456 Q113 445 126 445 Z " />
<glyph glyph-name="ordmasculine" unicode="&#xba;" horiz-adv-x="269" d="M134 392 Q89 392 60.5 414 Q32 436 32 483 L32 623 Q32 668 62 691 Q92 714 134 714 Q175 714 205.5 692 Q236 670 236 624 L236 483 Q236 436 206 414 Q176 392 134 392 Z M134 447 Q151 447 158 456.5 Q165 466 165 480 L165 625 Q165 639 157.5 648.5 Q150 658 134 658 Q117 658 110 648.5 Q103 639 103 625 L103 480 Q103 466 110 456.5 Q117 447 134 447 Z M44 359 L227 359 L227 299 L44 299 L44 359 Z " />
<glyph glyph-name="degree" unicode="&#xb0;" horiz-adv-x="244" d="M122 548 Q102 548 85.5 555 Q69 562 57.5 574 Q46 586 39.5 602 Q33 618 33 636 Q33 654 39.5 670 Q46 686 58 698 Q70 710 86.5 717 Q103 724 122 724 Q141 724 157.5 717 Q174 710 186 698 Q198 686 204.5 670 Q211 654 211 636 Q211 618 204 602 Q197 586 185 574 Q173 562 156.5 555 Q140 548 122 548 Z M122 590 Q140 590 152.5 603.5 Q165 617 165 636 Q165 655 153 668 Q141 681 122 681 Q103 681 91.5 668.5 Q80 656 80 636 Q80 617 92 603.5 Q104 590 122 590 Z " />
<glyph glyph-name="multiply" unicode="&#xd7;" horiz-adv-x="420" d="M45 205 L158 320 L43 435 L96 488 L210 373 L267 430 Q286 449 302.5 466 Q319 483 324 488 L376 435 L262 321 L286 297 Q302 281 319 263.5 Q336 246 352 230 L376 206 L324 153 L210 268 L96 152 L45 205 Z " />
<glyph glyph-name="divide" unicode="&#xf7;" horiz-adv-x="420" d="M167 228 L253 228 L253 117 L167 117 L167 228 Z M47 357 L372 357 L372 282 L47 282 L47 357 Z M167 516 L253 516 L253 406 L167 406 L167 516 Z " />
<glyph glyph-name="plusminus" unicode="&#xb1;" horiz-adv-x="420" d="M174 316 L42 316 L42 391 L174 391 L174 519 L248 519 L247 391 L378 391 L378 316 L248 316 L248 192 L174 192 L174 316 Z M45 133 L376 133 L376 59 L45 59 L45 133 Z " />
<glyph glyph-name="approxequal" unicode="&#x2248;" horiz-adv-x="420" d="M45 188 Q48 209 54 228.5 Q60 248 70 262.5 Q80 277 94 286 Q108 295 128 295 Q144 295 166 291 Q188 287 211.5 281.5 Q235 276 256.5 272 Q278 268 292 268 Q307 268 314 277.5 Q321 287 327 306 L375 296 Q373 276 367.5 256.5 Q362 237 352.5 222 Q343 207 329 197.5 Q315 188 295 188 Q280 188 257 192.5 Q234 197 210 202.5 Q186 208 164.5 212.5 Q143 217 130 217 Q115 217 108 208 Q101 199 96 179 L45 188 Z M45 355 Q48 376 54 395.5 Q60 415 70 430 Q80 445 94 453.5 Q108 462 128 462 Q144 462 166 458 Q188 454 211.5 448.5 Q235 443 256.5 439 Q278 435 292 435 Q307 435 314 445 Q321 455 327 473 L375 463 Q373 443 367.5 423.5 Q362 404 352.5 389 Q343 374 329 365 Q315 356 295 356 Q280 356 257 360.5 Q234 365 210 370.5 Q186 376 164.5 380.5 Q143 385 130 385 Q115 385 108 375.5 Q101 366 96 346 L45 355 Z " />
<glyph glyph-name="logicalnot" unicode="&#xac;" horiz-adv-x="420" d="M321 279 L23 279 L23 351 L397 351 L397 166 L321 166 L321 279 Z " />
<glyph glyph-name="notequal" unicode="&#x2260;" horiz-adv-x="420" d="M119 124 L144 200 L44 200 L44 274 L170 274 L198 353 L44 353 L44 427 L225 427 L254 508 L312 491 L290 427 L375 427 L375 353 L264 353 L235 274 L375 274 L375 200 L209 200 Q208 198 203 184 Q198 170 192.5 153.5 Q187 137 182 123.5 Q177 110 177 108 L119 124 Z " />
<glyph glyph-name="lessequal" unicode="&#x2264;" horiz-adv-x="420" d="M51 325 L51 381 L340 515 L372 450 L150 353 L370 254 L337 189 L51 325 Z M45 133 L375 133 L375 58 L45 58 L45 133 Z " />
<glyph glyph-name="greaterequal" unicode="&#x2265;" horiz-adv-x="420" d="M50 254 L270 353 Q265 355 248 362.5 Q231 370 208 380 Q185 390 159 401.5 Q133 413 110 423 Q87 433 70 440.5 Q53 448 48 450 L81 515 L370 381 L370 325 L83 189 L50 254 Z M45 133 L375 133 L375 58 L45 58 L45 133 Z " />
<glyph glyph-name="asciicircum" unicode="&#x5e;" horiz-adv-x="379" d="M152 547 L227 547 L306 189 L231 189 L188 409 L140 189 L65 189 L152 547 Z " />
<glyph glyph-name="asciitilde" unicode="&#x7e;" horiz-adv-x="406" d="M38 263 Q41 284 47 303.5 Q53 323 63 338 Q73 353 87 361.5 Q101 370 121 370 Q137 370 159 366 Q181 362 204.5 356.5 Q228 351 249.5 347 Q271 343 285 343 Q300 343 307 353 Q314 363 320 381 L368 371 Q366 351 360.5 331.5 Q355 312 345.5 297 Q336 282 322 273 Q308 264 288 264 Q273 264 250 268.5 Q227 273 203 278.5 Q179 284 157.5 288.5 Q136 293 123 293 Q108 293 101 283.5 Q94 274 89 254 L38 263 Z " />
<glyph glyph-name="pi" unicode="&#x3c0;" horiz-adv-x="410" d="M377 -4 Q354 -4 330.5 0.5 Q307 5 288.5 18.5 Q270 32 258 57 Q246 82 246 123 L246 437 L162 437 Q160 326 155.5 219 Q151 112 143 0 L44 0 Q54 112 59.5 218.5 Q65 325 67 437 L17 437 L27 530 L391 530 L391 437 L344 437 L344 139 Q344 120 350 105.5 Q356 91 377 91 L377 -4 Z " />
<glyph glyph-name="onesuperior" unicode="&#xb9;" horiz-adv-x="209" d="M74 706 L38 696 L28 752 L105 780 L149 780 L149 380 L74 380 L74 706 Z " />
<glyph glyph-name="twosuperior" unicode="&#xb2;" horiz-adv-x="270" d="M35 429 L99 522 Q133 571 148 605 Q163 639 163 668 L163 674 Q163 691 156 703.5 Q149 716 132 716 Q115 716 108.5 704.5 Q102 693 102 676 L102 653 L29 653 L29 680 Q29 727 57 754 Q85 781 134 781 Q185 781 212 752.5 Q239 724 239 673 Q239 625 219 586 Q199 547 177 515 L131 444 L241 444 L241 380 L35 380 L35 429 Z " />
<glyph glyph-name="threesuperior" unicode="&#xb3;" horiz-adv-x="270" d="M134 369 Q77 369 51.5 398.5 Q26 428 26 473 L26 495 L99 495 L99 472 Q99 454 108 443 Q117 432 132 432 Q164 432 164 491 Q164 525 151 536.5 Q138 548 125 548 L95 548 L95 608 L123 608 Q142 608 152 620.5 Q162 633 162 665 Q162 694 153 705 Q144 716 130 716 Q114 716 107 704 Q100 692 100 675 L100 657 L28 657 L28 679 Q28 727 55.5 754 Q83 781 134 781 Q182 781 209.5 752.5 Q237 724 237 675 Q237 643 225 617 Q213 591 186 581 L186 579 Q215 570 227.5 543.5 Q240 517 240 486 Q240 422 209.5 395.5 Q179 369 134 369 Z " />
<glyph glyph-name="onequarter" unicode="&#xbc;" horiz-adv-x="614" d="M464 91 L335 91 L335 148 L445 399 L524 399 L408 153 L464 153 L464 214 L537 269 L537 153 L569 153 L569 91 L537 91 L537 0 L464 0 L464 91 Z M101 642 L65 632 L55 688 L132 716 L176 716 L176 316 L101 316 L101 642 Z M413 716 L468 716 L171 -2 L115 -2 L413 716 Z " />
<glyph glyph-name="onehalf" unicode="&#xbd;" horiz-adv-x="614" d="M362 49 L426 142 Q460 191 475 225 Q490 259 490 288 L490 294 Q490 311 483 323.5 Q476 336 459 336 Q442 336 435.5 324.5 Q429 313 429 296 L429 273 L356 273 L356 300 Q356 347 384 374 Q412 401 461 401 Q512 401 539 372.5 Q566 344 566 293 Q566 245 546 206 Q526 167 504 135 L458 64 L568 64 L568 0 L362 0 L362 49 Z M99 642 L63 632 L53 688 L130 716 L174 716 L174 316 L99 316 L99 642 Z M405 716 L460 716 L163 -2 L107 -2 L405 716 Z " />
<glyph glyph-name="threequarters" unicode="&#xbe;" horiz-adv-x="614" d="M138 305 Q81 305 55.5 334.5 Q30 364 30 409 L30 431 L103 431 L103 408 Q103 390 112 379 Q121 368 136 368 Q168 368 168 427 Q168 461 155 472.5 Q142 484 129 484 L99 484 L99 544 L127 544 Q146 544 156 556.5 Q166 569 166 601 Q166 630 157 641 Q148 652 134 652 Q118 652 111 640 Q104 628 104 611 L104 593 L32 593 L32 615 Q32 663 59.5 690 Q87 717 138 717 Q186 717 213.5 688.5 Q241 660 241 611 Q241 579 229 553 Q217 527 190 517 L190 515 Q219 506 231.5 479.5 Q244 453 244 422 Q244 358 213.5 331.5 Q183 305 138 305 Z M475 91 L346 91 L346 148 L456 399 L535 399 L419 153 L475 153 L475 214 L548 269 L548 153 L580 153 L580 91 L548 91 L548 0 L475 0 L475 91 Z M438 716 L493 716 L196 -2 L140 -2 L438 716 Z " />
<glyph glyph-name="perthousand" unicode="&#x2030;" horiz-adv-x="853" d="M709 -11 Q663 -11 631 15.5 Q599 42 599 93 L599 245 Q599 297 630 327.5 Q661 358 709 358 Q756 358 787.5 330 Q819 302 819 250 L819 94 Q819 46 786.5 17.5 Q754 -11 709 -11 Z M709 50 Q730 50 738.5 63.5 Q747 77 747 92 L747 256 Q747 270 738 283 Q729 296 709 296 Q689 296 680 283 Q671 270 671 256 L671 91 Q671 75 679.5 62.5 Q688 50 709 50 Z M144 356 Q97 356 65.5 383 Q34 410 34 461 L34 616 Q34 669 65 696.5 Q96 724 144 724 Q191 724 222.5 696.5 Q254 669 254 617 L254 460 Q254 412 221.5 384 Q189 356 144 356 Z M144 418 Q165 418 174 431 Q183 444 183 459 L183 623 Q183 637 173.5 650 Q164 663 144 663 Q122 663 113.5 650.5 Q105 638 105 623 L105 458 Q105 442 114 430 Q123 418 144 418 Z M411 716 L469 716 L189 -2 L129 -2 L411 716 Z M449 -10 Q403 -10 371 16.5 Q339 43 339 94 L339 245 Q339 297 370 327.5 Q401 358 449 358 Q496 358 528 330 Q560 302 560 250 L560 95 Q560 71 551 51.5 Q542 32 527 18.5 Q512 5 491.5 -2.5 Q471 -10 449 -10 Z M449 51 Q471 51 479 64.5 Q487 78 487 93 L487 256 Q487 270 478 283 Q469 296 449 296 Q429 296 420 283 Q411 270 411 256 L411 92 Q411 76 419.5 63.5 Q428 51 449 51 Z " />
<glyph glyph-name="gravecomb" unicode="&#x300;" horiz-adv-x="1" d="M-474 724 L-367 724 L-299 578 L-376 578 L-474 724 Z " />
<glyph glyph-name="acutecomb" unicode="&#x301;" horiz-adv-x="1" d="M-389 724 L-282 724 L-380 578 L-457 578 L-389 724 Z " />
<glyph glyph-name="uni0302" unicode="&#x302;" horiz-adv-x="1" d="M-387 726 L-310 726 L-227 578 L-310 578 L-351 659 L-391 578 L-471 578 L-387 726 Z " />
<glyph glyph-name="tildecomb" unicode="&#x303;" horiz-adv-x="1" d="M-469 598 Q-463 640 -441.5 670.5 Q-420 701 -384 701 Q-369 701 -354 696.5 Q-339 692 -324.5 686.5 Q-310 681 -295.5 676.5 Q-281 672 -267 672 Q-253 672 -245.5 681.5 Q-238 691 -232 709 L-180 696 Q-183 676 -189.5 657.5 Q-196 639 -207 625 Q-218 611 -232.5 602.5 Q-247 594 -266 594 Q-280 594 -295.5 598.5 Q-311 603 -326 608.5 Q-341 614 -354.5 618.5 Q-368 623 -380 623 Q-394 623 -401.5 615 Q-409 607 -414 586 L-469 598 Z " />
<glyph glyph-name="uni0304" unicode="&#x304;" horiz-adv-x="1" d="M-444 675 L-229 675 L-229 598 L-444 598 L-444 675 Z " />
<glyph glyph-name="uni0306" unicode="&#x306;" horiz-adv-x="1" d="M-337 578 Q-397 578 -431 616 Q-465 654 -466 723 L-395 723 Q-393 707 -390 692.5 Q-387 678 -380 666.5 Q-373 655 -362 648.5 Q-351 642 -334 642 Q-306 642 -293.5 665 Q-281 688 -280 723 L-211 723 Q-213 651 -249 614.5 Q-285 578 -337 578 Z " />
<glyph glyph-name="uni0307" unicode="&#x307;" horiz-adv-x="1" d="M-444 713 L-340 713 L-340 586 L-444 586 L-444 713 Z " />
<glyph glyph-name="uni0308" unicode="&#x308;" horiz-adv-x="1" d="M-457 713 L-364 713 L-364 586 L-457 586 L-457 713 Z M-324 713 L-231 713 L-231 586 L-324 586 L-324 713 Z " />
<glyph glyph-name="uni030A" unicode="&#x30a;" horiz-adv-x="1" d="M-377 573 Q-417 573 -441 597.5 Q-465 622 -465 659 Q-465 697 -440 723.5 Q-415 750 -376 750 Q-335 750 -311.5 725.5 Q-288 701 -288 663 Q-288 644 -295 627.5 Q-302 611 -314 599 Q-326 587 -342 580 Q-358 573 -377 573 Z M-376 615 Q-356 615 -344.5 628 Q-333 641 -333 661 Q-333 681 -344 694.5 Q-355 708 -377 708 Q-397 708 -407.5 695 Q-418 682 -418 661 Q-418 640 -406 627.5 Q-394 615 -376 615 Z " />
<glyph glyph-name="uni030B" unicode="&#x30b;" horiz-adv-x="1" d="M-411 724 L-311 724 L-382 578 L-459 578 L-411 724 Z M-264 724 L-164 724 L-252 578 L-329 578 L-264 724 Z " />
<glyph glyph-name="uni030C" unicode="&#x30c;" horiz-adv-x="1" d="M-469 728 L-385 728 L-345 647 L-304 728 L-223 728 L-308 579 L-385 579 L-469 728 Z " />
<glyph glyph-name="uni0312" unicode="&#x312;" horiz-adv-x="1" d="M-421 735 L-361 735 L-366 576 L-452 576 L-421 735 Z " />
<glyph glyph-name="uni0313" unicode="&#x313;" horiz-adv-x="1" d="M-450 713 L-357 713 L-387 562 L-457 562 L-450 713 Z " />
<glyph glyph-name="uni0326" unicode="&#x326;" horiz-adv-x="1" d="M-452 -36 L-358 -36 L-386 -170 L-458 -170 L-452 -36 Z " />
<glyph glyph-name="uni0327" unicode="&#x327;" horiz-adv-x="1" d="M-377 -170 Q-393 -170 -414 -168 Q-435 -166 -456 -160 L-456 -108 Q-415 -119 -382 -119 Q-346 -119 -346 -96 Q-346 -83 -357.5 -78.5 Q-369 -74 -386 -72 L-420 -70 L-399 13 L-354 13 L-365 -32 Q-350 -32 -333.5 -34.5 Q-317 -37 -303.5 -44 Q-290 -51 -281 -62.5 Q-272 -74 -272 -93 Q-272 -129 -303.5 -149.5 Q-335 -170 -377 -170 Z " />
<glyph glyph-name="uni0328" unicode="&#x328;" horiz-adv-x="1" d="M-368 -170 Q-409 -170 -435.5 -150.5 Q-462 -131 -462 -88 Q-462 -65 -453 -46.5 Q-444 -28 -429 -14 Q-414 0 -396 10.5 Q-378 21 -360 28 L-327 1 Q-353 -12 -374 -28.5 Q-395 -45 -395 -73 Q-395 -90 -385 -99 Q-375 -108 -359 -108 Q-344 -108 -332.5 -103.5 Q-321 -99 -310 -93 L-284 -144 Q-300 -155 -322.5 -162.5 Q-345 -170 -368 -170 Z " />
<glyph glyph-name="uni00A0" unicode="&#xa0;" horiz-adv-x="145" d="" />
</font>
</svg>
